<?xml version="1.0" standalone="no"?>
<!DOCTYPE svg PUBLIC "-//W3C//DTD SVG 1.1//EN" "http://www.w3.org/Graphics/SVG/1.1/DTD/svg11.dtd" >
<svg xmlns="http://www.w3.org/2000/svg">
<metadata>Generated by IcoMoon</metadata>
<defs>
<font id="icomoon" horiz-adv-x="1024">
<font-face units-per-em="1024" ascent="960" descent="-64" />
<missing-glyph horiz-adv-x="1024" />
<glyph unicode="&#x20;" horiz-adv-x="512" d="" />
<glyph unicode="&#xe600;" glyph-name="weather-outline_celsius" d="M96 800c0-70.4 57.6-128 128-128s128 57.6 128 128-57.6 128-128 128-128-57.6-128-128zM224 864c35.2 0 64-28.8 64-64s-28.8-64-64-64-64 28.8-64 64 28.8 64 64 64zM704 704c60.8 0 121.6-16 176-48 16-9.6 35.2-3.2 44.8 12.8 6.4 16 3.2 35.2-12.8 44.8-64 35.2-134.4 54.4-208 54.4-230.4 0-416-185.6-416-416s185.6-416 416-416c70.4 0 140.8 19.2 201.6 51.2 16 9.6 22.4 28.8 12.8 44.8s-28.8 22.4-44.8 12.8c-51.2-28.8-108.8-44.8-169.6-44.8-195.2 0-352 156.8-352 352s156.8 352 352 352z" />
<glyph unicode="&#xe601;" glyph-name="weather-outline_cloud-13" d="M860.8 508.8c-28.8 166.4-172.8 291.2-348.8 291.2-147.2 0-278.4-92.8-332.8-230.4-102.4-28.8-179.2-124.8-179.2-233.6 0-124.8 96-227.2 224-240h608c0 0 3.2 0 3.2 0 108.8 12.8 188.8 102.4 188.8 208 0 99.2-67.2 182.4-163.2 204.8zM828.8 160h-601.6c-92.8 9.6-163.2 83.2-163.2 176 0 86.4 64 160 147.2 172.8 12.8 3.2 22.4 9.6 25.6 22.4 38.4 121.6 147.2 204.8 275.2 204.8 150.4 0 275.2-112 288-259.2 0-16 12.8-25.6 28.8-28.8 73.6-9.6 131.2-70.4 131.2-144s-54.4-134.4-131.2-144z" />
<glyph unicode="&#xe602;" glyph-name="weather-outline_cloud-14" d="M640 832c-163.2 0-307.2-105.6-361.6-256-6.4 0-16 0-22.4 0-144 0-256-112-256-256s112-256 256-256h416c6.4 0 12.8 3.2 16 6.4 188.8 22.4 336 185.6 336 377.6 0 211.2-172.8 384-384 384zM668.8 131.2c-3.2 0-6.4 0-9.6-3.2h-403.2c-108.8 0-192 83.2-192 192s83.2 192 192 192c16 0 25.6 0 38.4-3.2 16-3.2 32 6.4 38.4 22.4 38.4 140.8 166.4 236.8 307.2 236.8 176 0 320-144 320-320 0-163.2-128-300.8-291.2-316.8z" />
<glyph unicode="&#xe603;" glyph-name="weather-outline_cloud-drop" d="M672 121.6c0 83.2-112 224-134.4 249.6-12.8 16-38.4 16-48 0-22.4-28.8-134.4-169.6-134.4-249.6 0-96 80-153.6 160-153.6s156.8 57.6 156.8 153.6zM416 121.6c0 35.2 51.2 118.4 96 179.2 44.8-60.8 96-140.8 96-179.2 0-57.6-48-89.6-96-89.6s-96 32-96 89.6zM860.8 636.8c-28.8 166.4-172.8 291.2-348.8 291.2-147.2 0-278.4-92.8-332.8-230.4-102.4-28.8-179.2-124.8-179.2-233.6 0-124.8 96-227.2 220.8-240 19.2 0 32 12.8 35.2 28.8s-12.8 32-28.8 35.2c-92.8 9.6-163.2 83.2-163.2 176 0 86.4 64 160 147.2 172.8 9.6 3.2 19.2 9.6 25.6 22.4 38.4 121.6 147.2 204.8 275.2 204.8 150.4 0 275.2-112 288-259.2 0-16 12.8-25.6 28.8-28.8 73.6-9.6 131.2-70.4 131.2-144s-57.6-137.6-131.2-144c-16-3.2-28.8-19.2-28.8-35.2 3.2-16 16-28.8 32-28.8 0 0 3.2 0 3.2 0 108.8 12.8 188.8 102.4 188.8 208 0 99.2-67.2 182.4-163.2 204.8z" />
<glyph unicode="&#xe604;" glyph-name="weather-outline_cloud-fog-31" d="M179.2 697.6c-102.4-28.8-179.2-124.8-179.2-233.6 0-6.4 0-12.8 0-19.2 0-16 16-32 35.2-28.8 19.2 0 32 16 28.8 35.2 0 3.2 0 9.6 0 12.8 0 86.4 64 160 147.2 172.8 9.6 3.2 19.2 9.6 25.6 22.4 38.4 121.6 147.2 204.8 275.2 204.8 150.4 0 275.2-112 288-259.2 0-16 12.8-25.6 28.8-28.8 70.4-6.4 124.8-64 131.2-131.2 0-16 16-28.8 32-28.8 0 0 3.2 0 3.2 0 16 0 32 16 28.8 35.2-6.4 89.6-73.6 163.2-163.2 185.6-28.8 166.4-172.8 291.2-348.8 291.2-147.2 0-278.4-92.8-332.8-230.4zM992 320h-960c-19.2 0-32-12.8-32-32s12.8-32 32-32h960c19.2 0 32 12.8 32 32s-12.8 32-32 32zM896 160c0 19.2-12.8 32-32 32h-704c-19.2 0-32-12.8-32-32s12.8-32 32-32h704c19.2 0 32 12.8 32 32zM768 32c0 19.2-12.8 32-32 32h-448c-19.2 0-32-12.8-32-32s12.8-32 32-32h448c19.2 0 32 12.8 32 32z" />
<glyph unicode="&#xe605;" glyph-name="weather-outline_cloud-fog-32" d="M0 224c0-19.2 12.8-32 32-32h320c19.2 0 32 12.8 32 32s-12.8 32-32 32h-320c-19.2 0-32-12.8-32-32zM512 320c19.2 0 32 12.8 32 32s-12.8 32-32 32h-320c-19.2 0-32-12.8-32-32s12.8-32 32-32h320zM160 96c0-19.2 12.8-32 32-32h320c19.2 0 32 12.8 32 32s-12.8 32-32 32h-320c-19.2 0-32-12.8-32-32zM860.8 604.8c-28.8 166.4-172.8 291.2-348.8 291.2-147.2 0-278.4-92.8-332.8-230.4-102.4-28.8-179.2-124.8-179.2-233.6 0-6.4 0-12.8 0-19.2 0-19.2 16-32 35.2-28.8 19.2 0 32 16 28.8 35.2 0 3.2 0 9.6 0 12.8 0 86.4 64 160 147.2 172.8 12.8 3.2 22.4 9.6 25.6 22.4 38.4 121.6 147.2 204.8 275.2 204.8 150.4 0 275.2-112 288-259.2 0-16 12.8-25.6 28.8-28.8 73.6-9.6 131.2-70.4 131.2-144s-54.4-134.4-131.2-144h-316.8c-19.2 0-32-12.8-32-32s12.8-32 32-32h320c0 0 3.2 0 3.2 0 108.8 12.8 188.8 102.4 188.8 208 0 99.2-67.2 182.4-163.2 204.8z" />
<glyph unicode="&#xe606;" glyph-name="weather-outline_cloud-hail" d="M512 128c19.2 0 32 12.8 32 32v160c0 19.2-12.8 32-32 32s-32-12.8-32-32v-160c0-19.2 12.8-32 32-32zM352 224c19.2 0 32 12.8 32 32v160c0 19.2-12.8 32-32 32s-32-12.8-32-32v-160c0-19.2 12.8-32 32-32zM672 224c19.2 0 32 12.8 32 32v160c0 19.2-12.8 32-32 32s-32-12.8-32-32v-160c0-19.2 12.8-32 32-32zM860.8 636.8c-28.8 166.4-172.8 291.2-348.8 291.2-147.2 0-278.4-92.8-332.8-230.4-102.4-28.8-179.2-124.8-179.2-233.6 0-124.8 96-227.2 220.8-240 19.2 0 32 12.8 35.2 28.8s-12.8 32-28.8 35.2c-92.8 9.6-163.2 83.2-163.2 176 0 86.4 64 160 147.2 172.8 9.6 3.2 19.2 9.6 25.6 22.4 38.4 121.6 147.2 204.8 275.2 204.8 150.4 0 275.2-112 288-259.2 0-16 12.8-25.6 28.8-28.8 73.6-9.6 131.2-70.4 131.2-144s-57.6-137.6-131.2-144c-16-3.2-28.8-19.2-28.8-35.2 3.2-16 16-28.8 32-28.8 0 0 3.2 0 3.2 0 108.8 12.8 188.8 102.4 188.8 208 0 99.2-67.2 182.4-163.2 204.8zM320 96c0-19.2 12.8-32 32-32s32 12.8 32 32v32c0 19.2-12.8 32-32 32s-32-12.8-32-32v-32zM480 0c0-19.2 12.8-32 32-32s32 12.8 32 32v32c0 19.2-12.8 32-32 32s-32-12.8-32-32v-32zM640 96c0-19.2 12.8-32 32-32s32 12.8 32 32v32c0 19.2-12.8 32-32 32s-32-12.8-32-32v-32z" />
<glyph unicode="&#xe607;" glyph-name="weather-outline_cloud-light" d="M563.2 473.6c-16 9.6-35.2 6.4-44.8-9.6l-128-192c-6.4-9.6-6.4-22.4 0-32s16-16 28.8-16h137.6l-99.2-176c-9.6-16-3.2-35.2 12.8-44.8 0-3.2 3.2-3.2 9.6-3.2 9.6 0 22.4 6.4 28.8 16l128 224c6.4 9.6 6.4 22.4 0 32s-16 16-28.8 16h-131.2l96 140.8c6.4 16 3.2 35.2-9.6 44.8zM860.8 636.8c-28.8 166.4-172.8 291.2-348.8 291.2-147.2 0-278.4-92.8-332.8-230.4-102.4-28.8-179.2-124.8-179.2-233.6 0-124.8 96-227.2 220.8-240 19.2 0 32 12.8 35.2 28.8s-12.8 32-28.8 35.2c-92.8 9.6-163.2 83.2-163.2 176 0 86.4 64 160 147.2 172.8 9.6 3.2 19.2 9.6 25.6 22.4 38.4 121.6 147.2 204.8 275.2 204.8 150.4 0 275.2-112 288-259.2 0-16 12.8-25.6 28.8-28.8 73.6-9.6 131.2-70.4 131.2-144s-57.6-137.6-131.2-144c-16-3.2-28.8-19.2-28.8-35.2 3.2-16 16-28.8 32-28.8 0 0 3.2 0 3.2 0 108.8 12.8 188.8 102.4 188.8 208 0 99.2-67.2 182.4-163.2 204.8z" />
<glyph unicode="&#xe608;" glyph-name="weather-outline_cloud-moon" d="M992 640c-140.8 0-256 115.2-256 256 0 19.2-12.8 32-32 32-128 0-243.2-76.8-294.4-192-9.6 0-19.2 0-28.8 0-211.2 0-380.8-172.8-380.8-384s169.6-384 380.8-384h393.6c140.8 0 249.6 112 249.6 252.8 0 73.6-28.8 137.6-76.8 182.4 48 57.6 76.8 128 76.8 204.8 0 19.2-12.8 32-32 32zM960 220.8c0-105.6-83.2-188.8-185.6-188.8h-393.6c-176 0-316.8 144-316.8 320s140.8 320 316.8 320c150.4 0 278.4-102.4 310.4-246.4 3.2-9.6 6.4-16 16-19.2 6.4-3.2 16-6.4 25.6-3.2 16 3.2 32 6.4 44.8 6.4 99.2 0 182.4-83.2 182.4-188.8zM896 441.6c-35.2 19.2-76.8 32-124.8 32-9.6 0-19.2 0-28.8-3.2-38.4 128-140.8 224-268.8 256 38.4 76.8 112 128 198.4 137.6 16-150.4 134.4-268.8 284.8-284.8-3.2-51.2-25.6-99.2-60.8-137.6z" />
<glyph unicode="&#xe609;" glyph-name="weather-outline_cloud-rain" d="M544 0v288c0 19.2-12.8 32-32 32s-32-12.8-32-32v-288c0-19.2 12.8-32 32-32s32 12.8 32 32zM384 96v288c0 19.2-12.8 32-32 32s-32-12.8-32-32v-288c0-19.2 12.8-32 32-32s32 12.8 32 32zM704 96v288c0 19.2-12.8 32-32 32s-32-12.8-32-32v-288c0-19.2 12.8-32 32-32s32 12.8 32 32zM220.8 224c19.2-3.2 32 12.8 35.2 28.8 0 19.2-12.8 32-28.8 35.2-92.8 9.6-163.2 83.2-163.2 176 0 86.4 64 160 147.2 172.8 9.6 3.2 19.2 9.6 25.6 22.4 38.4 121.6 147.2 204.8 275.2 204.8 150.4 0 275.2-112 288-259.2 0-16 12.8-25.6 28.8-28.8 73.6-9.6 131.2-70.4 131.2-144s-57.6-137.6-131.2-144c-16-3.2-28.8-19.2-28.8-35.2 3.2-16 16-28.8 32-28.8 0 0 3.2 0 3.2 0 108.8 12.8 188.8 102.4 188.8 208 0 99.2-67.2 182.4-163.2 204.8-28.8 166.4-172.8 291.2-348.8 291.2-147.2 0-278.4-92.8-332.8-230.4-102.4-28.8-179.2-124.8-179.2-233.6 0-124.8 96-227.2 220.8-240z" />
<glyph unicode="&#xe60a;" glyph-name="weather-outline_cloud-rainbow" d="M992 864c19.2 0 32 12.8 32 32s-12.8 32-32 32c-208 0-390.4-121.6-470.4-310.4-54.4 35.2-118.4 54.4-185.6 54.4-185.6 0-336-150.4-336-336s150.4-336 336-336h435.2c137.6 0 249.6 112 249.6 249.6 0 89.6-48 169.6-118.4 211.2 16 32 51.2 54.4 86.4 54.4 19.2 0 32 12.8 32 32s-12.8 32-32 32c-64 0-118.4-35.2-147.2-92.8-22.4 6.4-48 9.6-73.6 9.6-16 0-28.8-3.2-44.8-3.2 32 115.2 137.6 195.2 262.4 195.2 19.2 0 32 12.8 32 32s-12.8 32-32 32c-166.4 0-307.2-121.6-332.8-284.8-3.2-3.2-6.4-3.2-9.6-6.4-16 41.6-44.8 80-76.8 112 73.6 176 240 291.2 425.6 291.2zM601.6 406.4c3.2-9.6 9.6-19.2 22.4-22.4 9.6-3.2 22.4 0 28.8 6.4 35.2 28.8 76.8 44.8 121.6 44.8 102.4 0 185.6-83.2 185.6-185.6s-83.2-185.6-185.6-185.6h-438.4c-150.4 0-272 121.6-272 272s121.6 272 272 272c124.8 0 233.6-83.2 265.6-201.6z" />
<glyph unicode="&#xe60b;" glyph-name="weather-outline_cloud-snow-34" d="M512 128c19.2 0 32 12.8 32 32v32c0 19.2-12.8 32-32 32s-32-12.8-32-32v-32c0-19.2 12.8-32 32-32zM352 224c19.2 0 32 12.8 32 32v32c0 19.2-12.8 32-32 32s-32-12.8-32-32v-32c0-19.2 12.8-32 32-32zM672 224c19.2 0 32 12.8 32 32v32c0 19.2-12.8 32-32 32s-32-12.8-32-32v-32c0-19.2 12.8-32 32-32zM480 0c0-19.2 12.8-32 32-32s32 12.8 32 32v32c0 19.2-12.8 32-32 32s-32-12.8-32-32v-32zM320 96c0-19.2 12.8-32 32-32s32 12.8 32 32v32c0 19.2-12.8 32-32 32s-32-12.8-32-32v-32zM640 96c0-19.2 12.8-32 32-32s32 12.8 32 32v32c0 19.2-12.8 32-32 32s-32-12.8-32-32v-32zM860.8 636.8c-28.8 166.4-172.8 291.2-348.8 291.2-147.2 0-278.4-92.8-332.8-230.4-102.4-28.8-179.2-124.8-179.2-233.6 0-124.8 96-227.2 220.8-240 19.2-3.2 32 12.8 35.2 28.8 0 16-12.8 32-28.8 35.2-92.8 9.6-163.2 83.2-163.2 176 0 86.4 64 160 147.2 172.8 9.6 3.2 19.2 9.6 25.6 22.4 38.4 121.6 147.2 204.8 275.2 204.8 150.4 0 275.2-112 288-259.2 0-16 12.8-25.6 28.8-28.8 73.6-9.6 131.2-70.4 131.2-144s-57.6-137.6-131.2-144c-16-3.2-28.8-19.2-28.8-35.2 3.2-16 16-28.8 32-28.8 0 0 3.2 0 3.2 0 108.8 12.8 188.8 102.4 188.8 208 0 99.2-67.2 182.4-163.2 204.8z" />
<glyph unicode="&#xe60c;" glyph-name="weather-outline_cloud-snow-42" d="M374.4 144c6.4-9.6 16-16 28.8-16 6.4 0 9.6 0 16 3.2l64 35.2v-70.4c0-19.2 12.8-32 32-32s32 12.8 32 32v73.6l64-35.2c6.4-3.2 9.6-3.2 16-3.2 9.6 0 22.4 6.4 28.8 16 9.6 16 3.2 35.2-12.8 44.8l-67.2 32 64 35.2c16 9.6 19.2 28.8 12.8 44.8-9.6 16-28.8 19.2-44.8 12.8l-64-35.2v70.4c0 19.2-12.8 32-32 32s-32-12.8-32-32v-73.6l-64 35.2c-16 9.6-35.2 3.2-44.8-12.8s-3.2-35.2 12.8-44.8l64-35.2-64-35.2c-12.8-6.4-19.2-25.6-9.6-41.6zM860.8 636.8c-28.8 166.4-172.8 291.2-348.8 291.2-147.2 0-278.4-92.8-332.8-230.4-102.4-28.8-179.2-124.8-179.2-233.6 0-124.8 96-227.2 220.8-240 19.2-3.2 32 12.8 35.2 28.8s-12.8 32-28.8 35.2c-92.8 9.6-163.2 83.2-163.2 176 0 86.4 64 160 147.2 172.8 9.6 3.2 19.2 9.6 25.6 22.4 38.4 121.6 147.2 204.8 275.2 204.8 150.4 0 275.2-112 288-259.2 0-16 12.8-25.6 28.8-28.8 73.6-9.6 131.2-70.4 131.2-144s-57.6-137.6-131.2-144c-16-3.2-28.8-19.2-28.8-35.2 3.2-16 16-28.8 32-28.8 0 0 3.2 0 3.2 0 108.8 12.8 188.8 102.4 188.8 208 0 99.2-67.2 182.4-163.2 204.8z" />
<glyph unicode="&#xe60d;" glyph-name="weather-outline_cloud-sun-17" d="M704 928c-128 0-243.2-76.8-294.4-192-9.6 0-19.2 0-28.8 0-211.2 0-380.8-172.8-380.8-384s169.6-384 380.8-384h393.6c140.8 0 249.6 112 249.6 252.8 0 73.6-28.8 137.6-76.8 182.4 48 57.6 76.8 128 76.8 204.8 0 176-144 320-320 320zM960 220.8c0-105.6-83.2-188.8-185.6-188.8h-393.6c-176 0-316.8 144-316.8 320s140.8 320 316.8 320c150.4 0 278.4-102.4 310.4-246.4 3.2-9.6 6.4-16 16-19.2s16-6.4 25.6-3.2c16 3.2 32 6.4 44.8 6.4 99.2 0 182.4-83.2 182.4-188.8zM774.4 473.6c-9.6 0-19.2 0-28.8-3.2-38.4 128-140.8 224-268.8 256 41.6 83.2 131.2 137.6 227.2 137.6 140.8 0 256-115.2 256-256 0-64-22.4-121.6-64-166.4-35.2 19.2-76.8 32-121.6 32z" />
<glyph unicode="&#xe60e;" glyph-name="weather-outline_cloud-sun-19" d="M576 864c19.2 0 32 12.8 32 32v32c0 19.2-12.8 32-32 32s-32-12.8-32-32v-32c0-19.2 12.8-32 32-32zM848 752c9.6 0 16 3.2 22.4 9.6l22.4 22.4c12.8 12.8 12.8 32 0 44.8s-32 12.8-44.8 0l-22.4-22.4c-12.8-12.8-12.8-32 0-44.8 6.4-6.4 12.8-9.6 22.4-9.6zM992 544h-32c-19.2 0-32-12.8-32-32s12.8-32 32-32h32c19.2 0 32 12.8 32 32s-12.8 32-32 32zM281.6 761.6c6.4-6.4 16-9.6 22.4-9.6s16 3.2 22.4 9.6c12.8 12.8 12.8 32 0 44.8l-22.4 22.4c-12.8 12.8-32 12.8-44.8 0s-12.8-32 0-44.8l22.4-22.4zM848 422.4c9.6 28.8 16 57.6 16 89.6 0 160-128 288-288 288-124.8 0-233.6-80-272-195.2-169.6-16-304-160-304-332.8 0-185.6 150.4-336 336-336h435.2c137.6 0 249.6 112 249.6 249.6 3.2 112-70.4 204.8-172.8 236.8zM576 736c124.8 0 224-99.2 224-224 0-25.6-6.4-54.4-12.8-76.8-3.2 0-6.4 0-12.8 0-44.8 0-86.4-12.8-124.8-35.2-48 112-153.6 192-275.2 204.8 35.2 80 112 131.2 201.6 131.2zM774.4 0h-438.4c-150.4 0-272 121.6-272 272s121.6 272 272 272c124.8 0 233.6-83.2 265.6-201.6 3.2-9.6 9.6-19.2 22.4-22.4 9.6-3.2 22.4 0 28.8 6.4 35.2 28.8 76.8 44.8 121.6 44.8 102.4 0 185.6-83.2 185.6-185.6s-83.2-185.6-185.6-185.6z" />
<glyph unicode="&#xe60f;" glyph-name="weather-outline_compass" d="M512 960c-281.6 0-512-230.4-512-512s230.4-512 512-512 512 230.4 512 512-230.4 512-512 512zM512 0c-246.4 0-448 201.6-448 448s201.6 448 448 448 448-201.6 448-448-201.6-448-448-448zM745.6 544l-416 128c-12.8 3.2-22.4 0-32-6.4-9.6-12.8-12.8-22.4-9.6-35.2l128-416c3.2-12.8 16-22.4 28.8-22.4 0 0 3.2 0 3.2 0 12.8 0 22.4 6.4 28.8 19.2l92.8 182.4 182.4 92.8c12.8 6.4 19.2 19.2 16 32 0 9.6-9.6 19.2-22.4 25.6zM531.2 444.8c-6.4-3.2-12.8-9.6-12.8-12.8l-60.8-121.6-86.4 281.6 281.6-86.4-121.6-60.8z" />
<glyph unicode="&#xe610;" glyph-name="weather-outline_drop-12" d="M512-64c188.8 0 384 144 384 384 0 230.4-345.6 582.4-361.6 598.4-12.8 12.8-32 12.8-44.8 0-16-16-361.6-368-361.6-598.4 0-240 195.2-384 384-384zM512 851.2c76.8-83.2 320-358.4 320-531.2 0-208-166.4-320-320-320s-320 112-320 320c0 172.8 243.2 448 320 531.2zM512 160c19.2 0 32 12.8 32 32s-12.8 32-32 32c-16 0-96 6.4-96 96 0 19.2-12.8 32-32 32s-32-12.8-32-32c0-128 105.6-160 160-160z" />
<glyph unicode="&#xe611;" glyph-name="weather-outline_drop-15" d="M512-64c188.8 0 384 144 384 384 0 230.4-345.6 582.4-361.6 598.4-12.8 12.8-32 12.8-44.8 0-16-16-361.6-368-361.6-598.4 0-240 195.2-384 384-384zM512 851.2c76.8-83.2 320-358.4 320-531.2 0-208-166.4-320-320-320s-320 112-320 320c0 172.8 243.2 448 320 531.2z" />
<glyph unicode="&#xe612;" glyph-name="weather-outline_drops" d="M832 249.6c0 182.4-284.8 467.2-297.6 480s-32 12.8-44.8 0c-12.8-16-297.6-297.6-297.6-480 0-195.2 163.2-313.6 320-313.6s320 118.4 320 313.6zM512 0c-124.8 0-256 86.4-256 249.6 0 118.4 166.4 316.8 256 409.6 89.6-92.8 256-291.2 256-409.6 0-163.2-131.2-249.6-256-249.6zM886.4 918.4c-12.8 12.8-32 12.8-44.8 0-22.4-22.4-137.6-137.6-137.6-220.8 0-96 80-153.6 160-153.6s160 57.6 160 153.6c0 83.2-115.2 198.4-137.6 220.8zM864 608c-48 0-96 32-96 89.6 0 35.2 51.2 102.4 96 153.6 44.8-48 96-115.2 96-153.6 0-57.6-48-89.6-96-89.6zM160 544c80 0 160 57.6 160 153.6 0 83.2-115.2 198.4-137.6 220.8-12.8 12.8-32 12.8-44.8 0-22.4-22.4-137.6-137.6-137.6-220.8 0-96 80-153.6 160-153.6zM160 851.2c44.8-48 96-115.2 96-153.6 0-57.6-48-89.6-96-89.6s-96 32-96 89.6c0 35.2 51.2 105.6 96 153.6z" />
<glyph unicode="&#xe613;" glyph-name="weather-outline_eclipse" d="M512 960c-281.6 0-512-230.4-512-512s230.4-512 512-512c48 0 96 6.4 140.8 19.2 0 0 0 0 0 0 214.4 64 371.2 259.2 371.2 492.8 0 281.6-230.4 512-512 512zM64 448c0 246.4 201.6 448 448 448 3.2 0 9.6 0 12.8 0-160-89.6-265.6-259.2-265.6-448s105.6-358.4 265.6-448c-3.2 0-9.6 0-12.8 0-246.4 0-448 201.6-448 448zM643.2 19.2c-188.8 57.6-316.8 230.4-316.8 428.8 0 195.2 131.2 371.2 316.8 428.8 182.4-57.6 316.8-227.2 316.8-428.8s-134.4-371.2-316.8-428.8z" />
<glyph unicode="&#xe614;" glyph-name="weather-outline_fahrenheit" d="M64 800c0-70.4 57.6-128 128-128s128 57.6 128 128-57.6 128-128 128-128-57.6-128-128zM256 800c0-35.2-28.8-64-64-64s-64 28.8-64 64 28.8 64 64 64 64-28.8 64-64zM928 736c19.2 0 32 12.8 32 32s-12.8 32-32 32h-480c-19.2 0-32-12.8-32-32v-800c0-19.2 12.8-32 32-32s32 12.8 32 32v416h384c19.2 0 32 12.8 32 32s-12.8 32-32 32h-384v288h448z" />
<glyph unicode="&#xe615;" glyph-name="weather-outline_fog" d="M3.2 649.6c9.6-16 28.8-19.2 44.8-9.6l124.8 73.6c48 28.8 105.6 25.6 153.6-3.2l73.6-48c35.2-22.4 73.6-35.2 115.2-35.2s80 12.8 115.2 35.2l73.6 48c44.8 28.8 105.6 32 153.6 3.2l124.8-73.6c16-9.6 35.2-3.2 44.8 9.6 9.6 16 3.2 35.2-9.6 44.8l-131.2 73.6c-67.2 41.6-153.6 38.4-220.8-6.4l-73.6-48c-48-32-108.8-32-156.8 0l-73.6 48c-67.2 44.8-153.6 48-224 6.4l-121.6-73.6c-16-9.6-19.2-28.8-12.8-44.8zM3.2 121.6c9.6-16 28.8-19.2 44.8-9.6l124.8 73.6c48 28.8 105.6 25.6 153.6-3.2l73.6-48c35.2-22.4 73.6-35.2 115.2-35.2s80 12.8 115.2 35.2l73.6 48c44.8 32 105.6 32 153.6 3.2l124.8-73.6c16-9.6 35.2-3.2 44.8 9.6s3.2 35.2-9.6 44.8l-124.8 73.6c-67.2 41.6-153.6 38.4-220.8-6.4l-73.6-48c-48-32-108.8-32-156.8 0l-73.6 48c-67.2 44.8-153.6 44.8-220.8 6.4l-124.8-73.6c-22.4-9.6-25.6-28.8-19.2-44.8zM3.2 387.2c9.6-16 28.8-19.2 44.8-9.6l124.8 70.4c48 28.8 105.6 25.6 153.6-3.2l73.6-48c35.2-22.4 73.6-35.2 115.2-35.2s80 12.8 115.2 35.2l73.6 48c44.8 28.8 105.6 32 153.6 3.2l124.8-73.6c16-9.6 35.2-3.2 44.8 9.6 9.6 16 3.2 35.2-9.6 44.8l-124.8 73.6c-67.2 41.6-153.6 38.4-220.8-6.4l-73.6-48c-48-32-108.8-32-156.8 0l-73.6 48c-73.6 48-160 48-230.4 9.6l-124.8-73.6c-12.8-9.6-16-32-9.6-44.8z" />
<glyph unicode="&#xe616;" glyph-name="weather-outline_forecast" d="M64 928v-960c0-19.2 12.8-32 32-32s32 12.8 32 32v960c0 19.2-12.8 32-32 32s-32-12.8-32-32zM998.4 736l-768 160c-9.6 0-19.2 0-25.6-6.4-9.6-6.4-12.8-16-12.8-25.6v-576c0-9.6 3.2-19.2 12.8-25.6 3.2-3.2 12.8-6.4 19.2-6.4 3.2 0 3.2 0 6.4 0l768 160c16 3.2 25.6 16 25.6 32v256c0 16-9.6 28.8-25.6 32zM704 732.8v-310.4l-192-38.4v387.2l192-38.4zM256 825.6l192-38.4v-416l-192-41.6v496zM960 473.6l-192-41.6v284.8l192-38.4v-204.8z" />
<glyph unicode="&#xe617;" glyph-name="weather-outline_hurricane-44" d="M700.8 92.8c-9.6 16-28.8 19.2-44.8 9.6-38.4-25.6-89.6-38.4-144-38.4-60.8 0-115.2 16-156.8 44.8-16 9.6-35.2 6.4-44.8-6.4-9.6-16-6.4-35.2 6.4-44.8 51.2-38.4 121.6-57.6 192-57.6 67.2 0 128 16 179.2 48 19.2 9.6 22.4 28.8 12.8 44.8zM800 313.6c-12.8 12.8-32 12.8-44.8 0-48-48-144-76.8-243.2-76.8s-188.8 28.8-240 73.6c-12.8 12.8-32 9.6-44.8-3.2s-9.6-32 3.2-44.8c60.8-57.6 169.6-89.6 284.8-89.6 118.4 0 227.2 35.2 288 96 9.6 12.8 9.6 32-3.2 44.8zM825.6 489.6c-64-48-182.4-80-313.6-80s-249.6 32-313.6 80c-12.8 9.6-35.2 9.6-44.8-6.4-9.6-12.8-6.4-35.2 6.4-44.8 73.6-57.6 208-92.8 352-92.8s278.4 35.2 352 92.8c12.8 9.6 16 32 6.4 44.8-12.8 12.8-32 16-44.8 6.4zM512 928c-249.6 0-512-70.4-512-204.8s262.4-204.8 512-204.8 512 70.4 512 204.8c0 134.4-262.4 204.8-512 204.8zM512 582.4c-278.4 0-448 83.2-448 140.8s169.6 140.8 448 140.8 448-83.2 448-140.8c0-57.6-169.6-140.8-448-140.8z" />
<glyph unicode="&#xe618;" glyph-name="weather-outline_hurricane-45" d="M992 864c0 19.2-12.8 32-32 32h-896c-19.2 0-32-12.8-32-32s12.8-32 32-32h896c19.2 0 32 12.8 32 32zM832 672c19.2 0 32 12.8 32 32s-12.8 32-32 32h-640c-19.2 0-32-12.8-32-32s12.8-32 32-32h640zM896 544c0 19.2-12.8 32-32 32h-544c-19.2 0-32-12.8-32-32s12.8-32 32-32h544c19.2 0 32 12.8 32 32zM800 384c0 19.2-12.8 32-32 32h-320c-19.2 0-32-12.8-32-32s12.8-32 32-32h320c19.2 0 32 12.8 32 32zM544 224c0 19.2-12.8 32-32 32h-224c-19.2 0-32-12.8-32-32s12.8-32 32-32h224c19.2 0 32 12.8 32 32zM128 64c0-19.2 12.8-32 32-32h160c19.2 0 32 12.8 32 32s-12.8 32-32 32h-160c-19.2 0-32-12.8-32-32z" />
<glyph unicode="&#xe619;" glyph-name="weather-outline_moon-cloud-drop" d="M489.6 342.4c-12.8-16-137.6-147.2-137.6-240 0-102.4 80-166.4 160-166.4s160 60.8 160 166.4c0 92.8-121.6 224-137.6 240-9.6 12.8-35.2 12.8-44.8 0zM512 0c-48 0-96 35.2-96 102.4 0 41.6 51.2 118.4 96 169.6 44.8-51.2 96-128 96-169.6 0-67.2-48-102.4-96-102.4zM963.2 515.2c19.2 38.4 28.8 83.2 28.8 124.8 0 12.8 0 28.8-3.2 44.8 0 9.6-6.4 16-12.8 22.4s-16 6.4-25.6 3.2-38.4-6.4-54.4-6.4c-105.6 0-192 86.4-192 188.8 0 9.6-3.2 19.2-9.6 22.4s-16 12.8-25.6 9.6c-124.8-16-224-108.8-246.4-230.4-70.4-19.2-131.2-64-166.4-128-16 3.2-32 6.4-48 6.4-115.2 0-208-92.8-208-204.8 0-115.2 92.8-208 208-208h48c19.2 0 32 12.8 32 32s-12.8 32-32 32h-48c-80 0-144 64-144 144s64 144 144 144c16 0 35.2-3.2 51.2-9.6s35.2 0 41.6 16c32 76.8 108.8 124.8 188.8 124.8 89.6 0 169.6-57.6 195.2-140.8 3.2-9.6 9.6-16 19.2-19.2s19.2 0 28.8 3.2c25.6 16 51.2 25.6 83.2 25.6 80 0 144-64 144-144s-64-144-144-144h-48c-19.2 0-32-12.8-32-32s12.8-32 32-32h48c115.2 0 208 92.8 208 208 0 57.6-22.4 108.8-60.8 147.2zM732.8 553.6c-44.8 92.8-137.6 150.4-243.2 150.4 0 0 0 0 0 0 22.4 73.6 80 131.2 153.6 150.4 19.2-121.6 124.8-214.4 252.8-214.4 9.6 0 22.4 0 32 3.2 0 0 0 0 0-3.2 0-32-6.4-60.8-19.2-89.6-28.8 12.8-57.6 22.4-92.8 22.4-28.8 0-57.6-6.4-83.2-19.2z" />
<glyph unicode="&#xe61a;" glyph-name="weather-outline_moon-cloud-fog" d="M992 224h-960c-19.2 0-32-12.8-32-32s12.8-32 32-32h960c19.2 0 32 12.8 32 32s-12.8 32-32 32zM864 96h-704c-19.2 0-32-12.8-32-32s12.8-32 32-32h704c19.2 0 32 12.8 32 32s-12.8 32-32 32zM960 483.2c19.2 38.4 32 83.2 32 128 0 12.8 0 28.8-3.2 44.8 0 9.6-6.4 16-12.8 22.4s-16 6.4-25.6 3.2c-16-6.4-35.2-6.4-51.2-6.4-105.6 0-192 86.4-192 188.8 0 9.6-3.2 19.2-9.6 22.4s-19.2 9.6-28.8 9.6c-124.8-16-224-108.8-246.4-233.6-70.4-19.2-131.2-64-166.4-128-16 3.2-32 6.4-48 6.4-115.2 0-208-92.8-208-204.8 0-6.4 0-12.8 0-16 0-16 16-32 35.2-28.8 16 0 32 16 28.8 35.2 0 3.2 0 6.4 0 12.8 0 80 64 144 144 144 16 0 35.2-3.2 51.2-9.6s35.2 0 41.6 16c32 76.8 108.8 124.8 188.8 124.8 89.6 0 169.6-57.6 195.2-140.8 3.2-9.6 9.6-16 19.2-19.2s19.2 0 28.8 3.2c25.6 16 51.2 25.6 83.2 25.6 80 0 144-64 144-144 0-3.2 0-6.4 0-12.8 0-16 12.8-32 28.8-35.2 0 0 3.2 0 3.2 0 16 0 32 12.8 32 28.8 0 6.4 0 12.8 0 16 0 57.6-25.6 108.8-64 147.2zM732.8 521.6c-44.8 92.8-137.6 150.4-243.2 150.4 0 0 0 0 0 0 22.4 73.6 80 134.4 153.6 153.6 19.2-121.6 124.8-214.4 252.8-214.4 9.6 0 22.4 0 32 3.2 0 0 0 0 0-3.2 0-32-6.4-60.8-19.2-89.6-28.8 12.8-57.6 22.4-92.8 22.4-28.8-3.2-57.6-9.6-83.2-22.4z" />
<glyph unicode="&#xe61b;" glyph-name="weather-outline_moon-cloud-hail" d="M963.2 515.2c19.2 38.4 28.8 83.2 28.8 124.8 0 12.8 0 28.8-3.2 44.8 0 9.6-6.4 16-12.8 22.4s-16 6.4-25.6 3.2-38.4-6.4-54.4-6.4c-105.6 0-192 86.4-192 188.8 0 9.6-3.2 19.2-9.6 22.4s-16 12.8-25.6 9.6c-124.8-16-224-108.8-246.4-230.4-70.4-19.2-131.2-64-166.4-128-16 3.2-32 6.4-48 6.4-115.2 0-208-92.8-208-204.8 0-115.2 92.8-208 208-208h48c19.2 0 32 12.8 32 32s-12.8 32-32 32h-48c-80 0-144 64-144 144s64 144 144 144c16 0 35.2-3.2 51.2-9.6s35.2 0 41.6 16c32 76.8 108.8 124.8 188.8 124.8 89.6 0 169.6-57.6 195.2-140.8 3.2-9.6 9.6-16 19.2-19.2s19.2 0 28.8 3.2c25.6 16 51.2 25.6 83.2 25.6 80 0 144-64 144-144s-64-144-144-144h-48c-19.2 0-32-12.8-32-32s12.8-32 32-32h48c115.2 0 208 92.8 208 208 0 57.6-22.4 108.8-60.8 147.2zM732.8 553.6c-44.8 92.8-137.6 150.4-243.2 150.4 0 0 0 0 0 0 22.4 73.6 80 131.2 153.6 150.4 19.2-121.6 124.8-214.4 252.8-214.4 9.6 0 22.4 0 32 3.2 0 0 0 0 0-3.2 0-32-6.4-60.8-19.2-89.6-28.8 12.8-57.6 22.4-92.8 22.4-28.8 0-57.6-6.4-83.2-19.2zM512 288c-19.2 0-32-12.8-32-32v-128c0-19.2 12.8-32 32-32s32 12.8 32 32v128c0 19.2-12.8 32-32 32zM384 384c-19.2 0-32-12.8-32-32v-128c0-19.2 12.8-32 32-32s32 12.8 32 32v128c0 19.2-12.8 32-32 32zM640 384c-19.2 0-32-12.8-32-32v-128c0-19.2 12.8-32 32-32s32 12.8 32 32v128c0 19.2-12.8 32-32 32zM512 64c-19.2 0-32-12.8-32-32v-32c0-19.2 12.8-32 32-32s32 12.8 32 32v32c0 19.2-12.8 32-32 32zM384 160c-19.2 0-32-12.8-32-32v-32c0-19.2 12.8-32 32-32s32 12.8 32 32v32c0 19.2-12.8 32-32 32zM640 160c-19.2 0-32-12.8-32-32v-32c0-19.2 12.8-32 32-32s32 12.8 32 32v32c0 19.2-12.8 32-32 32z" />
<glyph unicode="&#xe61c;" glyph-name="weather-outline_moon-cloud-light" d="M576 224h-70.4l67.2 112c9.6 16 3.2 35.2-9.6 44.8s-35.2 3.2-44.8-9.6l-96-160c-6.4-9.6-6.4-22.4 0-32s16-16 28.8-16h70.4l-67.2-112c-9.6-16-3.2-35.2 9.6-44.8 3.2-6.4 9.6-6.4 16-6.4 9.6 0 22.4 6.4 28.8 16l96 160c6.4 9.6 6.4 22.4 0 32s-16 16-28.8 16zM960 515.2c19.2 38.4 32 83.2 32 128 0 12.8 0 28.8-3.2 44.8 0 9.6-6.4 16-12.8 22.4s-16 6.4-25.6 3.2c-16-6.4-35.2-6.4-51.2-6.4-105.6 0-192 86.4-192 188.8 0 9.6-3.2 19.2-9.6 22.4s-19.2 9.6-28.8 9.6c-124.8-16-224-108.8-246.4-233.6-70.4-19.2-131.2-64-166.4-128-16 3.2-32 6.4-48 6.4-115.2 0-208-92.8-208-204.8 0-115.2 92.8-208 208-208h80c19.2 0 32 12.8 32 32s-12.8 32-32 32h-80c-80 0-144 64-144 144s64 144 144 144c16 0 35.2-3.2 51.2-9.6s35.2 0 41.6 16c32 76.8 108.8 124.8 188.8 124.8 89.6 0 169.6-57.6 195.2-140.8 3.2-9.6 9.6-16 19.2-19.2s19.2 0 28.8 3.2c25.6 16 51.2 25.6 83.2 25.6 80 0 144-64 144-144s-64-144-144-144h-80c-19.2 0-32-12.8-32-32s12.8-32 32-32h80c115.2 0 208 92.8 208 208 0 57.6-25.6 108.8-64 147.2zM732.8 553.6c-44.8 92.8-137.6 150.4-243.2 150.4 0 0 0 0 0 0 22.4 73.6 80 134.4 153.6 153.6 19.2-121.6 124.8-214.4 252.8-214.4 9.6 0 22.4 0 32 3.2 0 0 0 0 0-3.2 0-32-6.4-60.8-19.2-89.6-28.8 12.8-57.6 22.4-92.8 22.4-28.8-3.2-57.6-9.6-83.2-22.4z" />
<glyph unicode="&#xe61d;" glyph-name="weather-outline_moon-cloud-rain" d="M963.2 515.2c19.2 38.4 28.8 83.2 28.8 124.8 0 12.8 0 28.8-3.2 44.8 0 9.6-6.4 16-12.8 22.4s-16 6.4-25.6 3.2-38.4-6.4-54.4-6.4c-105.6 0-192 86.4-192 188.8 0 9.6-3.2 19.2-9.6 22.4s-16 12.8-25.6 9.6c-124.8-16-224-108.8-246.4-230.4-70.4-19.2-131.2-64-166.4-128-16 3.2-32 6.4-48 6.4-115.2 0-208-92.8-208-204.8 0-115.2 92.8-208 208-208h48c19.2 0 32 12.8 32 32s-12.8 32-32 32h-48c-80 0-144 64-144 144s64 144 144 144c16 0 35.2-3.2 51.2-9.6s35.2 0 41.6 16c32 76.8 108.8 124.8 188.8 124.8 89.6 0 169.6-57.6 195.2-140.8 3.2-9.6 9.6-16 19.2-19.2s19.2 0 28.8 3.2c25.6 16 51.2 25.6 83.2 25.6 80 0 144-64 144-144s-64-144-144-144h-48c-19.2 0-32-12.8-32-32s12.8-32 32-32h48c115.2 0 208 92.8 208 208 0 57.6-22.4 108.8-60.8 147.2zM732.8 553.6c-44.8 92.8-137.6 150.4-243.2 150.4 0 0 0 0 0 0 22.4 73.6 80 131.2 153.6 150.4 19.2-121.6 124.8-214.4 252.8-214.4 9.6 0 22.4 0 32 3.2 0 0 0 0 0-3.2 0-32-6.4-60.8-19.2-89.6-28.8 12.8-57.6 22.4-92.8 22.4-28.8 0-57.6-6.4-83.2-19.2zM512 288c-19.2 0-32-12.8-32-32v-256c0-19.2 12.8-32 32-32s32 12.8 32 32v256c0 19.2-12.8 32-32 32zM384 384c-19.2 0-32-12.8-32-32v-256c0-19.2 12.8-32 32-32s32 12.8 32 32v256c0 19.2-12.8 32-32 32zM640 384c-19.2 0-32-12.8-32-32v-256c0-19.2 12.8-32 32-32s32 12.8 32 32v256c0 19.2-12.8 32-32 32z" />
<glyph unicode="&#xe61e;" glyph-name="weather-outline_moon-cloud-snow-61" d="M963.2 515.2c19.2 38.4 28.8 83.2 28.8 124.8 0 12.8 0 28.8-3.2 44.8 0 9.6-6.4 16-12.8 22.4s-16 6.4-25.6 3.2c-128-35.2-246.4 60.8-246.4 182.4 0 9.6-3.2 19.2-9.6 22.4-6.4 6.4-16 9.6-25.6 6.4-124.8-16-224-108.8-246.4-230.4-70.4-19.2-131.2-64-166.4-128-16 3.2-32 6.4-48 6.4-115.2 3.2-208-89.6-208-201.6 0-115.2 92.8-208 208-208h48c19.2 0 32 12.8 32 32s-12.8 32-32 32h-48c-80 0-144 64-144 144s64 144 144 144c16 0 35.2-3.2 51.2-9.6s35.2 0 41.6 16c32 76.8 108.8 124.8 188.8 124.8 89.6 0 169.6-57.6 195.2-140.8 3.2-9.6 9.6-16 19.2-19.2s19.2 0 28.8 3.2c25.6 16 51.2 25.6 83.2 25.6 80 0 144-64 144-144s-64-144-144-144h-48c-19.2 0-32-12.8-32-32s12.8-32 32-32h48c115.2 0 208 92.8 208 208 0 57.6-22.4 108.8-60.8 147.2zM732.8 553.6c-44.8 92.8-137.6 150.4-243.2 150.4 0 0 0 0 0 0 22.4 73.6 80 131.2 153.6 150.4 22.4-131.2 147.2-230.4 284.8-214.4 0 0 0 0 0-3.2 0-32-6.4-60.8-19.2-89.6-28.8 12.8-57.6 22.4-92.8 22.4-28.8 3.2-57.6-3.2-83.2-16zM512 256c-19.2 0-32-12.8-32-32v-32c0-19.2 12.8-32 32-32s32 12.8 32 32v32c0 19.2-12.8 32-32 32zM384 352c-19.2 0-32-12.8-32-32v-32c0-19.2 12.8-32 32-32s32 12.8 32 32v32c0 19.2-12.8 32-32 32zM640 352c-19.2 0-32-12.8-32-32v-32c0-19.2 12.8-32 32-32s32 12.8 32 32v32c0 19.2-12.8 32-32 32zM512 64c-19.2 0-32-12.8-32-32v-32c0-19.2 12.8-32 32-32s32 12.8 32 32v32c0 19.2-12.8 32-32 32zM384 160c-19.2 0-32-12.8-32-32v-32c0-19.2 12.8-32 32-32s32 12.8 32 32v32c0 19.2-12.8 32-32 32zM640 160c-19.2 0-32-12.8-32-32v-32c0-19.2 12.8-32 32-32s32 12.8 32 32v32c0 19.2-12.8 32-32 32z" />
<glyph unicode="&#xe61f;" glyph-name="weather-outline_moon-cloud-snow-62" d="M649.6 240c-9.6 16-28.8 19.2-44.8 12.8l-64-35.2v70.4c0 19.2-12.8 32-32 32s-32-12.8-32-32v-73.6l-64 35.2c-16 9.6-35.2 3.2-44.8-12.8s-3.2-35.2 12.8-44.8l64-35.2-64-35.2c-16-9.6-19.2-28.8-12.8-44.8 6.4-9.6 16-16 28.8-16 6.4 0 9.6 0 16 3.2l64 35.2v-67.2c0-19.2 12.8-32 32-32s32 12.8 32 32v73.6l64-35.2c6.4-3.2 9.6-3.2 16-3.2 9.6 0 22.4 6.4 28.8 16 9.6 16 3.2 35.2-12.8 44.8l-60.8 32 64 35.2c12.8 9.6 19.2 28.8 9.6 44.8zM963.2 515.2c19.2 38.4 28.8 83.2 28.8 124.8 0 12.8 0 28.8-3.2 44.8 0 9.6-6.4 16-12.8 22.4s-16 6.4-25.6 3.2c-128-35.2-246.4 60.8-246.4 182.4 0 9.6-3.2 19.2-9.6 22.4-6.4 6.4-16 9.6-25.6 6.4-124.8-16-224-108.8-246.4-230.4-70.4-19.2-131.2-64-166.4-128-16 3.2-32 6.4-48 6.4-115.2 3.2-208-89.6-208-201.6 0-115.2 92.8-208 208-208h48c19.2 0 32 12.8 32 32s-12.8 32-32 32h-48c-80 0-144 64-144 144s64 144 144 144c16 0 35.2-3.2 51.2-9.6s35.2 0 41.6 16c32 76.8 108.8 124.8 188.8 124.8 89.6 0 169.6-57.6 195.2-140.8 3.2-9.6 9.6-16 19.2-19.2s19.2 0 28.8 3.2c25.6 16 51.2 25.6 83.2 25.6 80 0 144-64 144-144s-64-144-144-144h-48c-19.2 0-32-12.8-32-32s12.8-32 32-32h48c115.2 0 208 92.8 208 208 0 57.6-22.4 108.8-60.8 147.2zM732.8 553.6c-44.8 92.8-137.6 150.4-243.2 150.4 0 0 0 0 0 0 22.4 73.6 80 131.2 153.6 150.4 22.4-131.2 147.2-230.4 284.8-214.4 0 0 0 0 0-3.2 0-32-6.4-60.8-19.2-89.6-28.8 12.8-57.6 22.4-92.8 22.4-28.8 3.2-57.6-3.2-83.2-16z" />
<glyph unicode="&#xe620;" glyph-name="weather-outline_moon-fog" d="M32 457.6c0-16 0-28.8 3.2-41.6 0-16 16-32 35.2-28.8 19.2 0 32 16 28.8 35.2-3.2 9.6-3.2 22.4-3.2 35.2 0 172.8 105.6 326.4 262.4 390.4-6.4-25.6-6.4-48-6.4-73.6 0-268.8 217.6-486.4 486.4-486.4 22.4 0 48 3.2 70.4 6.4-44.8-108.8-137.6-195.2-249.6-236.8-16-6.4-25.6-25.6-19.2-41.6 3.2-12.8 16-22.4 28.8-22.4 3.2 0 6.4 0 9.6 3.2 150.4 54.4 265.6 176 307.2 332.8 3.2 9.6 0 22.4-9.6 32s-19.2 12.8-32 9.6c-38.4-9.6-73.6-16-112-16-227.2-3.2-416 185.6-416 419.2 0 35.2 6.4 73.6 16 112 3.2 9.6 0 22.4-9.6 32-6.4 9.6-19.2 12.8-32 9.6-211.2-57.6-358.4-252.8-358.4-470.4zM0 128c0-19.2 12.8-32 32-32h320c19.2 0 32 12.8 32 32s-12.8 32-32 32h-320c-19.2 0-32-12.8-32-32zM416 288h-320c-19.2 0-32-12.8-32-32s12.8-32 32-32h320c19.2 0 32 12.8 32 32s-12.8 32-32 32zM160 0c0-19.2 12.8-32 32-32h320c19.2 0 32 12.8 32 32s-12.8 32-32 32h-320c-19.2 0-32-12.8-32-32z" />
<glyph unicode="&#xe621;" glyph-name="weather-outline_moon-full" d="M512 960c-281.6 0-512-230.4-512-512s230.4-512 512-512 512 230.4 512 512-230.4 512-512 512zM512 0c-246.4 0-448 201.6-448 448s201.6 448 448 448 448-201.6 448-448-201.6-448-448-448z" />
<glyph unicode="&#xe622;" glyph-name="weather-outline_moon-stars" d="M422.4 918.4c-6.4 9.6-19.2 12.8-32 9.6-211.2-57.6-358.4-252.8-358.4-470.4 0-272 217.6-489.6 489.6-489.6 220.8 0 412.8 147.2 470.4 358.4 3.2 9.6 0 22.4-9.6 32s-19.2 12.8-32 9.6c-38.4-9.6-73.6-16-112-16-233.6 0-422.4 188.8-422.4 422.4 0 35.2 6.4 73.6 16 112 3.2 12.8 0 25.6-9.6 32zM838.4 288c22.4 0 48 3.2 70.4 6.4-64-156.8-217.6-262.4-390.4-262.4-233.6 0-422.4 188.8-422.4 425.6 0 172.8 105.6 326.4 262.4 390.4-6.4-25.6-6.4-48-6.4-73.6 0-268.8 217.6-486.4 486.4-486.4zM672 928c-19.2 0-32-12.8-32-32v-32h-32c-19.2 0-32-12.8-32-32s12.8-32 32-32h32v-32c0-19.2 12.8-32 32-32s32 12.8 32 32v32h32c19.2 0 32 12.8 32 32s-12.8 32-32 32h-32v32c0 19.2-12.8 32-32 32zM896 672c-19.2 0-32-12.8-32-32v-32h-32c-19.2 0-32-12.8-32-32s12.8-32 32-32h32v-32c0-19.2 12.8-32 32-32s32 12.8 32 32v32h32c19.2 0 32 12.8 32 32s-12.8 32-32 32h-32v32c0 19.2-12.8 32-32 32z" />
<glyph unicode="&#xe623;" glyph-name="weather-outline_moon" d="M422.4 918.4c-6.4 9.6-19.2 12.8-32 9.6-211.2-57.6-358.4-252.8-358.4-470.4 0-272 217.6-489.6 489.6-489.6 220.8 0 412.8 147.2 470.4 358.4 3.2 9.6 0 22.4-9.6 32s-19.2 12.8-32 9.6c-38.4-9.6-73.6-16-112-16-233.6 0-422.4 188.8-422.4 422.4 0 35.2 6.4 73.6 16 112 3.2 12.8 0 25.6-9.6 32zM838.4 288c22.4 0 48 3.2 70.4 6.4-64-156.8-217.6-262.4-390.4-262.4-233.6 0-422.4 188.8-422.4 425.6 0 172.8 105.6 326.4 262.4 390.4-6.4-25.6-6.4-48-6.4-73.6 0-268.8 217.6-486.4 486.4-486.4z" />
<glyph unicode="&#xe624;" glyph-name="weather-outline_rain-hail" d="M534.4 438.4c-12.8 12.8-32 12.8-44.8 0l-32-32c-12.8-12.8-12.8-32 0-44.8 6.4-6.4 16-9.6 22.4-9.6s16 3.2 22.4 9.6l32 32c12.8 12.8 12.8 32 0 44.8zM617.6 521.6c6.4-6.4 16-9.6 22.4-9.6s16 3.2 22.4 9.6l320 320c12.8 12.8 12.8 32 0 44.8s-32 12.8-44.8 0l-320-320c-12.8-12.8-12.8-32 0-44.8zM64 256c9.6 0 16 3.2 22.4 9.6l32 32c12.8 12.8 12.8 32 0 44.8s-32 12.8-44.8 0l-32-32c-12.8-12.8-12.8-32 0-44.8 6.4-6.4 12.8-9.6 22.4-9.6zM566.4 790.4c-12.8 12.8-32 12.8-44.8 0l-320-320c-12.8-12.8-12.8-32 0-44.8 6.4-6.4 12.8-9.6 22.4-9.6s16 3.2 22.4 9.6l320 320c12.8 12.8 12.8 32 0 44.8zM489.6 118.4l-32-32c-12.8-12.8-12.8-32 0-44.8 6.4-6.4 16-9.6 22.4-9.6s16 3.2 22.4 9.6l32 32c12.8 12.8 12.8 32 0 44.8s-32 12.8-44.8 0zM937.6 566.4l-320-320c-12.8-12.8-12.8-32 0-44.8 6.4-6.4 16-9.6 22.4-9.6s16 3.2 22.4 9.6l320 320c12.8 12.8 12.8 32 0 44.8s-32 12.8-44.8 0z" />
<glyph unicode="&#xe625;" glyph-name="weather-outline_rain" d="M982.4 886.4c-12.8 12.8-32 12.8-44.8 0l-480-480c-12.8-12.8-12.8-32 0-44.8 6.4-6.4 16-9.6 22.4-9.6s16 3.2 22.4 9.6l480 480c12.8 12.8 12.8 32 0 44.8zM521.6 790.4l-480-480c-12.8-12.8-12.8-32 0-44.8 6.4-6.4 12.8-9.6 22.4-9.6s16 3.2 22.4 9.6l480 480c12.8 12.8 12.8 32 0 44.8s-32 12.8-44.8 0zM937.6 566.4l-480-480c-12.8-12.8-12.8-32 0-44.8 6.4-6.4 16-9.6 22.4-9.6s16 3.2 22.4 9.6l480 480c12.8 12.8 12.8 32 0 44.8s-32 12.8-44.8 0z" />
<glyph unicode="&#xe626;" glyph-name="weather-outline_rainbow" d="M512 736c-281.6 0-512-230.4-512-512 0-19.2 12.8-32 32-32s32 12.8 32 32c0 246.4 201.6 448 448 448s448-201.6 448-448c0-19.2 12.8-32 32-32s32 12.8 32 32c0 281.6-230.4 512-512 512zM512 560c-185.6 0-336-150.4-336-336 0-19.2 12.8-32 32-32s32 12.8 32 32c0 150.4 121.6 272 272 272s272-121.6 272-272c0-19.2 12.8-32 32-32s32 12.8 32 32c0 185.6-150.4 336-336 336zM412.8 224c0 54.4 44.8 99.2 99.2 99.2s99.2-44.8 99.2-99.2c0-19.2 12.8-32 32-32s32 12.8 32 32c0 89.6-73.6 163.2-163.2 163.2s-163.2-73.6-163.2-163.2c0-19.2 12.8-32 32-32s32 12.8 32 32z" />
<glyph unicode="&#xe627;" glyph-name="weather-outline_snow" d="M243.2 329.6l-166.4 44.8c-16 3.2-35.2-6.4-38.4-22.4s6.4-35.2 22.4-38.4l105.6-28.8-83.2-48c-19.2-9.6-22.4-28.8-16-44.8 6.4-9.6 16-16 28.8-16 6.4 0 9.6 0 16 3.2l83.2 48-28.8-105.6c-3.2-16 6.4-35.2 22.4-38.4 3.2 0 6.4 0 9.6 0 12.8 0 25.6 9.6 32 22.4l44.8 166.4 204.8 118.4v-236.8l-121.6-121.6c-12.8-12.8-12.8-32 0-44.8s32-12.8 44.8 0l76.8 76.8v-96c0-19.2 12.8-32 32-32s32 12.8 32 32v96l76.8-76.8c6.4-6.4 16-9.6 22.4-9.6s16 3.2 22.4 9.6c12.8 12.8 12.8 32 0 44.8l-121.6 124.8v236.8l204.8-118.4 44.8-166.4c3.2-12.8 16-22.4 32-22.4 3.2 0 6.4 0 9.6 0 16 3.2 25.6 22.4 22.4 38.4l-28.8 105.6 83.2-48c6.4-3.2 9.6-3.2 16-3.2 9.6 0 22.4 6.4 28.8 16 9.6 16 3.2 35.2-12.8 44.8l-83.2 48 105.6 28.8c16 3.2 25.6 22.4 22.4 38.4s-22.4 25.6-38.4 22.4l-166.4-44.8-208 115.2 204.8 118.4 166.4-44.8c3.2 0 6.4 0 9.6 0 12.8 0 25.6 9.6 32 22.4 3.2 16-6.4 35.2-22.4 38.4l-105.6 28.8 83.2 48c16 9.6 19.2 28.8 12.8 44.8-9.6 16-28.8 19.2-44.8 12.8l-83.2-48 28.8 105.6c3.2 16-6.4 35.2-22.4 38.4s-35.2-6.4-38.4-22.4l-44.8-166.4-208-121.6v236.8l121.6 121.6c12.8 12.8 12.8 32 0 44.8s-32 12.8-44.8 0l-76.8-73.6v96c0 19.2-12.8 32-32 32s-32-12.8-32-32v-96l-76.8 76.8c-12.8 12.8-32 12.8-44.8 0s-12.8-32 0-44.8l121.6-124.8v-236.8l-204.8 118.4-44.8 166.4c-3.2 19.2-22.4 28.8-38.4 22.4-19.2-3.2-28.8-22.4-22.4-38.4l28.8-105.6-86.4 51.2c-16 6.4-35.2 3.2-44.8-12.8-6.4-16-3.2-35.2 12.8-44.8l83.2-48-105.6-28.8c-12.8-3.2-25.6-22.4-19.2-38.4 3.2-12.8 16-22.4 32-22.4 3.2 0 6.4 0 9.6 0l166.4 44.8 201.6-118.4-204.8-118.4z" />
<glyph unicode="&#xe628;" glyph-name="weather-outline_sun-cloud-drop" d="M672 102.4c0 92.8-121.6 224-137.6 240-12.8 12.8-35.2 12.8-48 0-12.8-16-137.6-147.2-137.6-240 0-102.4 80-166.4 160-166.4s163.2 60.8 163.2 166.4zM416 102.4c0 41.6 51.2 118.4 96 169.6 44.8-51.2 96-128 96-169.6 0-67.2-48-102.4-96-102.4s-96 35.2-96 102.4zM883.2 531.2c9.6 25.6 12.8 51.2 12.8 76.8 0 124.8-99.2 224-224 224-102.4 0-188.8-67.2-217.6-163.2-83.2-9.6-160-60.8-201.6-134.4-16 3.2-32 6.4-48 6.4-112 0-204.8-92.8-204.8-204.8 0-115.2 92.8-208 208-208h48c19.2 0 32 12.8 32 32s-12.8 32-32 32h-48c-80 0-144 64-144 144s64 144 144 144c16 0 35.2-3.2 51.2-9.6s35.2 0 41.6 16c32 76.8 108.8 124.8 188.8 124.8 89.6 0 169.6-57.6 195.2-140.8 3.2-9.6 9.6-16 19.2-19.2s19.2 0 28.8 3.2c25.6 16 51.2 25.6 83.2 25.6 80 0 144-64 144-144s-64-144-144-144h-48c-19.2 0-32-12.8-32-32s12.8-32 32-32h48c115.2 0 208 92.8 208 208 0 89.6-60.8 166.4-140.8 195.2zM732.8 521.6c-41.6 80-118.4 134.4-208 147.2 22.4 57.6 83.2 99.2 147.2 99.2 89.6 0 160-70.4 160-160 0-22.4-6.4-44.8-16-67.2-28.8 0-57.6-6.4-83.2-19.2zM640 928v-32c0-19.2 12.8-32 32-32s32 12.8 32 32v32c0 19.2-12.8 32-32 32s-32-12.8-32-32zM899.2 790.4l22.4 22.4c12.8 12.8 12.8 32 0 44.8s-32 12.8-44.8 0l-22.4-22.4c-12.8-12.8-12.8-32 0-44.8 6.4-6.4 16-9.6 22.4-9.6s16 3.2 22.4 9.6zM992 640h-32c-19.2 0-32-12.8-32-32s12.8-32 32-32h32c19.2 0 32 12.8 32 32s-12.8 32-32 32zM422.4 857.6c-12.8-12.8-12.8-32 0-44.8l22.4-22.4c6.4-6.4 16-9.6 22.4-9.6s16 3.2 22.4 9.6c12.8 12.8 12.8 32 0 44.8l-22.4 22.4c-12.8 12.8-32 12.8-44.8 0z" />
<glyph unicode="&#xe629;" glyph-name="weather-outline_sun-cloud-fog" d="M992 192h-960c-19.2 0-32-12.8-32-32s12.8-32 32-32h960c19.2 0 32 12.8 32 32s-12.8 32-32 32zM896 32c0 19.2-12.8 32-32 32h-704c-19.2 0-32-12.8-32-32s12.8-32 32-32h704c19.2 0 32 12.8 32 32zM883.2 499.2c9.6 25.6 12.8 51.2 12.8 76.8 0 124.8-99.2 224-224 224-102.4 0-188.8-67.2-217.6-163.2-83.2-9.6-160-60.8-201.6-134.4-16 3.2-32 6.4-48 6.4-112 0-204.8-92.8-204.8-204.8 0-6.4 0-12.8 0-16 0-16 16-28.8 32-28.8 0 0 3.2 0 3.2 0 19.2 0 32 16 28.8 35.2 0 3.2 0 6.4 0 12.8 0 80 64 144 144 144 16 0 35.2-3.2 51.2-9.6s35.2 0 41.6 16c32 76.8 108.8 124.8 188.8 124.8 89.6 0 169.6-57.6 195.2-140.8 3.2-9.6 9.6-16 19.2-19.2s19.2 0 28.8 3.2c25.6 16 51.2 25.6 83.2 25.6 80 0 144-64 144-144 0-3.2 0-6.4 0-12.8 0-19.2 12.8-32 28.8-35.2 19.2 0 32 12.8 35.2 28.8 0 6.4 0 12.8 0 16 0 89.6-60.8 166.4-140.8 195.2zM732.8 489.6c-41.6 80-118.4 134.4-208 147.2 22.4 57.6 83.2 99.2 147.2 99.2 89.6 0 160-70.4 160-160 0-22.4-6.4-44.8-16-67.2-28.8 0-57.6-6.4-83.2-19.2zM640 896v-32c0-19.2 12.8-32 32-32s32 12.8 32 32v32c0 19.2-12.8 32-32 32s-32-12.8-32-32zM876.8 748.8c9.6 0 16 3.2 22.4 9.6l22.4 22.4c12.8 12.8 12.8 32 0 44.8s-32 12.8-44.8 0l-22.4-22.4c-12.8-12.8-12.8-32 0-44.8 6.4-6.4 12.8-9.6 22.4-9.6zM992 608h-32c-19.2 0-32-12.8-32-32s12.8-32 32-32h32c19.2 0 32 12.8 32 32s-12.8 32-32 32zM422.4 825.6c-12.8-12.8-12.8-32 0-44.8l22.4-22.4c6.4-6.4 16-9.6 22.4-9.6s16 3.2 22.4 9.6c12.8 12.8 12.8 32 0 44.8l-22.4 22.4c-12.8 12.8-32 12.8-44.8 0z" />
<glyph unicode="&#xe62a;" glyph-name="weather-outline_sun-cloud-hail" d="M883.2 531.2c9.6 25.6 12.8 51.2 12.8 76.8 0 124.8-99.2 224-224 224-102.4 0-188.8-67.2-217.6-163.2-83.2-9.6-160-60.8-201.6-134.4-16 3.2-32 6.4-48 6.4-112 0-204.8-92.8-204.8-204.8 0-115.2 92.8-208 208-208h48c19.2 0 32 12.8 32 32s-12.8 32-32 32h-48c-80 0-144 64-144 144s64 144 144 144c16 0 35.2-3.2 51.2-9.6s35.2 0 41.6 16c32 76.8 108.8 124.8 188.8 124.8 89.6 0 169.6-57.6 195.2-140.8 3.2-9.6 9.6-16 19.2-19.2s19.2 0 28.8 3.2c25.6 16 51.2 25.6 83.2 25.6 80 0 144-64 144-144s-64-144-144-144h-48c-19.2 0-32-12.8-32-32s12.8-32 32-32h48c115.2 0 208 92.8 208 208 0 89.6-60.8 166.4-140.8 195.2zM732.8 521.6c-41.6 80-118.4 134.4-208 147.2 22.4 57.6 83.2 99.2 147.2 99.2 89.6 0 160-70.4 160-160 0-22.4-6.4-44.8-16-67.2-28.8 0-57.6-6.4-83.2-19.2zM512 64c19.2 0 32 12.8 32 32v128c0 19.2-12.8 32-32 32s-32-12.8-32-32v-128c0-19.2 12.8-32 32-32zM384 160c19.2 0 32 12.8 32 32v128c0 19.2-12.8 32-32 32s-32-12.8-32-32v-128c0-19.2 12.8-32 32-32zM640 160c19.2 0 32 12.8 32 32v128c0 19.2-12.8 32-32 32s-32-12.8-32-32v-128c0-19.2 12.8-32 32-32zM672 960c-19.2 0-32-12.8-32-32v-32c0-19.2 12.8-32 32-32s32 12.8 32 32v32c0 19.2-12.8 32-32 32zM876.8 857.6l-22.4-22.4c-12.8-12.8-12.8-32 0-44.8 6.4-6.4 16-9.6 22.4-9.6s16 3.2 22.4 9.6l22.4 22.4c12.8 12.8 12.8 32 0 44.8s-32 12.8-44.8 0zM992 640h-32c-19.2 0-32-12.8-32-32s12.8-32 32-32h32c19.2 0 32 12.8 32 32s-12.8 32-32 32zM422.4 857.6c-12.8-12.8-12.8-32 0-44.8l22.4-22.4c6.4-6.4 16-9.6 22.4-9.6s16 3.2 22.4 9.6c12.8 12.8 12.8 32 0 44.8l-22.4 22.4c-12.8 12.8-32 12.8-44.8 0zM480-32c0-19.2 12.8-32 32-32s32 12.8 32 32v32c0 19.2-12.8 32-32 32s-32-12.8-32-32v-32zM352 64c0-19.2 12.8-32 32-32s32 12.8 32 32v32c0 19.2-12.8 32-32 32s-32-12.8-32-32v-32zM608 64c0-19.2 12.8-32 32-32s32 12.8 32 32v32c0 19.2-12.8 32-32 32s-32-12.8-32-32v-32z" />
<glyph unicode="&#xe62b;" glyph-name="weather-outline_sun-cloud-light" d="M560 348.8c-16 9.6-35.2 3.2-44.8-9.6l-96-160c-6.4-9.6-6.4-22.4 0-32s16-16 28.8-16h70.4l-67.2-112c-9.6-16-3.2-35.2 9.6-44.8 6.4-6.4 12.8-6.4 19.2-6.4 9.6 0 22.4 6.4 28.8 16l96 160c6.4 9.6 6.4 22.4 0 32s-16 16-28.8 16h-70.4l67.2 112c6.4 16 3.2 35.2-12.8 44.8zM883.2 531.2c9.6 25.6 12.8 51.2 12.8 76.8 0 124.8-99.2 224-224 224-102.4 0-188.8-67.2-217.6-163.2-83.2-9.6-160-60.8-201.6-134.4-16 3.2-32 6.4-48 6.4-112 0-204.8-92.8-204.8-204.8 0-115.2 92.8-208 208-208h80c19.2 0 32 12.8 32 32s-12.8 32-32 32h-80c-80 0-144 64-144 144s64 144 144 144c16 0 35.2-3.2 51.2-9.6s35.2 0 41.6 16c32 76.8 108.8 124.8 188.8 124.8 89.6 0 169.6-57.6 195.2-140.8 3.2-9.6 9.6-16 19.2-19.2s19.2 0 28.8 3.2c25.6 16 51.2 25.6 83.2 25.6 80 0 144-64 144-144s-64-144-144-144h-80c-19.2 0-32-12.8-32-32s12.8-32 32-32h80c115.2 0 208 92.8 208 208 0 89.6-60.8 166.4-140.8 195.2zM732.8 521.6c-41.6 80-118.4 134.4-208 147.2 22.4 57.6 83.2 99.2 147.2 99.2 89.6 0 160-70.4 160-160 0-22.4-6.4-44.8-16-67.2-28.8 0-57.6-6.4-83.2-19.2zM640 928v-32c0-19.2 12.8-32 32-32s32 12.8 32 32v32c0 19.2-12.8 32-32 32s-32-12.8-32-32zM899.2 790.4l22.4 22.4c12.8 12.8 12.8 32 0 44.8s-32 12.8-44.8 0l-22.4-22.4c-12.8-12.8-12.8-32 0-44.8 6.4-6.4 16-9.6 22.4-9.6s16 3.2 22.4 9.6zM992 640h-32c-19.2 0-32-12.8-32-32s12.8-32 32-32h32c19.2 0 32 12.8 32 32s-12.8 32-32 32zM422.4 857.6c-12.8-12.8-12.8-32 0-44.8l22.4-22.4c6.4-6.4 16-9.6 22.4-9.6s16 3.2 22.4 9.6c12.8 12.8 12.8 32 0 44.8l-22.4 22.4c-12.8 12.8-32 12.8-44.8 0z" />
<glyph unicode="&#xe62c;" glyph-name="weather-outline_sun-cloud-rain" d="M883.2 531.2c9.6 25.6 12.8 51.2 12.8 76.8 0 124.8-99.2 224-224 224-102.4 0-188.8-67.2-217.6-163.2-83.2-9.6-160-60.8-201.6-134.4-16 3.2-32 6.4-48 6.4-112 0-204.8-92.8-204.8-204.8 0-115.2 92.8-208 208-208h48c19.2 0 32 12.8 32 32s-12.8 32-32 32h-48c-80 0-144 64-144 144s64 144 144 144c16 0 35.2-3.2 51.2-9.6s35.2 0 41.6 16c32 76.8 108.8 124.8 188.8 124.8 89.6 0 169.6-57.6 195.2-140.8 3.2-9.6 9.6-16 19.2-19.2s19.2 0 28.8 3.2c25.6 16 51.2 25.6 83.2 25.6 80 0 144-64 144-144s-64-144-144-144h-48c-19.2 0-32-12.8-32-32s12.8-32 32-32h48c115.2 0 208 92.8 208 208 0 89.6-60.8 166.4-140.8 195.2zM732.8 521.6c-41.6 80-118.4 134.4-208 147.2 22.4 57.6 83.2 99.2 147.2 99.2 89.6 0 160-70.4 160-160 0-22.4-6.4-44.8-16-67.2-28.8 0-57.6-6.4-83.2-19.2zM544-32v256c0 19.2-12.8 32-32 32s-32-12.8-32-32v-256c0-19.2 12.8-32 32-32s32 12.8 32 32zM416 64v256c0 19.2-12.8 32-32 32s-32-12.8-32-32v-256c0-19.2 12.8-32 32-32s32 12.8 32 32zM672 64v256c0 19.2-12.8 32-32 32s-32-12.8-32-32v-256c0-19.2 12.8-32 32-32s32 12.8 32 32zM704 896v32c0 19.2-12.8 32-32 32s-32-12.8-32-32v-32c0-19.2 12.8-32 32-32s32 12.8 32 32zM899.2 790.4l22.4 22.4c12.8 12.8 12.8 32 0 44.8s-32 12.8-44.8 0l-22.4-22.4c-12.8-12.8-12.8-32 0-44.8 6.4-6.4 16-9.6 22.4-9.6s16 3.2 22.4 9.6zM992 640h-32c-19.2 0-32-12.8-32-32s12.8-32 32-32h32c19.2 0 32 12.8 32 32s-12.8 32-32 32zM467.2 780.8c9.6 0 16 3.2 22.4 9.6 12.8 12.8 12.8 32 0 44.8l-22.4 22.4c-12.8 12.8-32 12.8-44.8 0s-12.8-32 0-44.8l22.4-22.4c6.4-6.4 16-9.6 22.4-9.6z" />
<glyph unicode="&#xe62d;" glyph-name="weather-outline_sun-cloud-snow-54" d="M512 224c-19.2 0-32-12.8-32-32v-32c0-19.2 12.8-32 32-32s32 12.8 32 32v32c0 19.2-12.8 32-32 32zM384 320c-19.2 0-32-12.8-32-32v-32c0-19.2 12.8-32 32-32s32 12.8 32 32v32c0 19.2-12.8 32-32 32zM640 320c-19.2 0-32-12.8-32-32v-32c0-19.2 12.8-32 32-32s32 12.8 32 32v32c0 19.2-12.8 32-32 32zM512 32c-19.2 0-32-12.8-32-32v-32c0-19.2 12.8-32 32-32s32 12.8 32 32v32c0 19.2-12.8 32-32 32zM384 128c-19.2 0-32-12.8-32-32v-32c0-19.2 12.8-32 32-32s32 12.8 32 32v32c0 19.2-12.8 32-32 32zM640 128c-19.2 0-32-12.8-32-32v-32c0-19.2 12.8-32 32-32s32 12.8 32 32v32c0 19.2-12.8 32-32 32zM883.2 531.2c9.6 25.6 12.8 51.2 12.8 76.8 0 124.8-99.2 224-224 224-102.4 0-188.8-67.2-217.6-163.2-83.2-9.6-160-60.8-201.6-134.4-16 3.2-32 6.4-48 6.4-112 0-204.8-92.8-204.8-204.8 0-115.2 92.8-208 208-208h16c19.2 0 32 12.8 32 32s-12.8 32-32 32h-16c-80 0-144 64-144 144s64 144 144 144c16 0 35.2-3.2 51.2-9.6s35.2 0 41.6 16c32 76.8 108.8 124.8 188.8 124.8 89.6 0 169.6-57.6 195.2-140.8 3.2-9.6 9.6-16 19.2-19.2s19.2 0 28.8 3.2c25.6 16 51.2 25.6 83.2 25.6 80 0 144-64 144-144s-64-144-144-144h-16c-19.2 0-32-12.8-32-32s12.8-32 32-32h16c115.2 0 208 92.8 208 208 0 89.6-60.8 166.4-140.8 195.2zM732.8 521.6c-41.6 80-118.4 134.4-208 147.2 22.4 57.6 83.2 99.2 147.2 99.2 89.6 0 160-70.4 160-160 0-22.4-6.4-44.8-16-67.2-28.8 0-57.6-6.4-83.2-19.2zM672 960c-19.2 0-32-12.8-32-32v-32c0-19.2 12.8-32 32-32s32 12.8 32 32v32c0 19.2-12.8 32-32 32zM854.4 790.4c6.4-6.4 16-9.6 22.4-9.6s16 3.2 22.4 9.6l22.4 22.4c12.8 12.8 12.8 32 0 44.8s-32 12.8-44.8 0l-22.4-22.4c-12.8-12.8-12.8-35.2 0-44.8zM992 640h-32c-19.2 0-32-12.8-32-32s12.8-32 32-32h32c19.2 0 32 12.8 32 32s-12.8 32-32 32zM422.4 857.6c-12.8-12.8-12.8-32 0-44.8l22.4-22.4c6.4-6.4 16-9.6 22.4-9.6s16 3.2 22.4 9.6c12.8 12.8 12.8 32 0 44.8l-22.4 22.4c-12.8 12.8-32 12.8-44.8 0z" />
<glyph unicode="&#xe62e;" glyph-name="weather-outline_sun-cloud-snow-55" d="M649.6 208c-9.6 16-28.8 19.2-44.8 12.8l-64-35.2v70.4c0 19.2-12.8 32-32 32s-32-12.8-32-32v-73.6l-64 35.2c-16 9.6-35.2 3.2-44.8-12.8s-3.2-35.2 12.8-44.8l64-35.2-64-35.2c-16-9.6-19.2-28.8-12.8-44.8 6.4-9.6 16-16 28.8-16 6.4 0 9.6 0 16 3.2l64 35.2v-67.2c0-19.2 12.8-32 32-32s32 12.8 32 32v73.6l64-35.2c6.4-3.2 9.6-3.2 16-3.2 9.6 0 22.4 6.4 28.8 16 9.6 16 3.2 35.2-12.8 44.8l-60.8 32 64 35.2c12.8 9.6 19.2 28.8 9.6 44.8zM883.2 499.2c9.6 25.6 12.8 51.2 12.8 76.8 0 124.8-99.2 224-224 224-102.4 0-188.8-67.2-217.6-163.2-83.2-9.6-160-60.8-201.6-134.4-16 3.2-32 6.4-48 6.4-112 0-204.8-92.8-204.8-204.8 0-115.2 92.8-208 208-208h16c19.2 0 32 12.8 32 32s-12.8 32-32 32h-16c-80 0-144 64-144 144s64 144 144 144c16 0 35.2-3.2 51.2-9.6s35.2 0 41.6 16c32 76.8 108.8 124.8 188.8 124.8 89.6 0 169.6-57.6 195.2-140.8 3.2-9.6 9.6-16 19.2-19.2s19.2 0 28.8 3.2c25.6 16 51.2 25.6 83.2 25.6 80 0 144-64 144-144s-64-144-144-144h-16c-19.2 0-32-12.8-32-32s12.8-32 32-32h16c115.2 0 208 92.8 208 208 0 89.6-60.8 166.4-140.8 195.2zM732.8 489.6c-41.6 80-118.4 134.4-208 147.2 22.4 57.6 83.2 99.2 147.2 99.2 89.6 0 160-70.4 160-160 0-22.4-6.4-44.8-16-67.2-28.8 0-57.6-6.4-83.2-19.2zM640 896v-32c0-19.2 12.8-32 32-32s32 12.8 32 32v32c0 19.2-12.8 32-32 32s-32-12.8-32-32zM876.8 748.8c9.6 0 16 3.2 22.4 9.6l22.4 22.4c12.8 12.8 12.8 32 0 44.8s-32 12.8-44.8 0l-22.4-22.4c-12.8-12.8-12.8-32 0-44.8 6.4-6.4 12.8-9.6 22.4-9.6zM992 608h-32c-19.2 0-32-12.8-32-32s12.8-32 32-32h32c19.2 0 32 12.8 32 32s-12.8 32-32 32zM422.4 825.6c-12.8-12.8-12.8-32 0-44.8l22.4-22.4c6.4-6.4 16-9.6 22.4-9.6s16 3.2 22.4 9.6c12.8 12.8 12.8 32 0 44.8l-22.4 22.4c-12.8 12.8-32 12.8-44.8 0z" />
<glyph unicode="&#xe62f;" glyph-name="weather-outline_sun-cloud" d="M480 928v-64c0-19.2 12.8-32 32-32s32 12.8 32 32v64c0 19.2-12.8 32-32 32s-32-12.8-32-32zM828.8 809.6l-44.8-44.8c-12.8-12.8-12.8-32 0-44.8 6.4-6.4 16-9.6 22.4-9.6s16 3.2 22.4 9.6l44.8 44.8c12.8 12.8 12.8 32 0 44.8s-32 12.8-44.8 0zM992 480h-64c-19.2 0-32-12.8-32-32s12.8-32 32-32h64c19.2 0 32 12.8 32 32s-12.8 32-32 32zM96 416c19.2 0 32 12.8 32 32s-12.8 32-32 32h-64c-19.2 0-32-12.8-32-32s12.8-32 32-32h64zM150.4 809.6c-12.8-12.8-12.8-32 0-44.8l44.8-44.8c6.4-6.4 16-9.6 22.4-9.6s16 3.2 22.4 9.6c12.8 12.8 12.8 32 0 44.8l-44.8 44.8c-12.8 12.8-32 12.8-44.8 0zM816 348.8c0 0 0 0 0 0 9.6 32 16 64 16 99.2 0 176-144 320-320 320s-320-144-320-320c0-35.2 6.4-67.2 16-99.2 0 0 0 0-3.2 0-112 0-204.8-92.8-204.8-204.8 0-115.2 92.8-208 208-208h611.2c115.2 0 208 92.8 208 208-3.2 112-96 204.8-211.2 204.8zM512 704c140.8 0 256-115.2 256-256 0-38.4-9.6-80-28.8-115.2-3.2 0-6.4-3.2-6.4-3.2-44.8 89.6-137.6 150.4-243.2 150.4-89.6 0-169.6-44.8-220.8-112-6.4 25.6-12.8 51.2-12.8 80 0 140.8 115.2 256 256 256zM816 0h-608c-80 0-144 64-144 144s64 144 144 144c16 0 35.2-3.2 51.2-9.6s35.2 0 41.6 16c32 76.8 108.8 124.8 188.8 124.8 89.6 0 169.6-57.6 195.2-140.8 3.2-9.6 9.6-16 19.2-19.2s19.2 0 28.8 3.2c25.6 16 51.2 25.6 83.2 25.6 80 0 144-64 144-144s-64-144-144-144z" />
<glyph unicode="&#xe630;" glyph-name="weather-outline_sun-fog-29" d="M64 256c0-19.2 12.8-32 32-32h832c19.2 0 32 12.8 32 32s-12.8 32-32 32h-832c-19.2 0-32-12.8-32-32zM864 128c0 19.2-12.8 32-32 32h-640c-19.2 0-32-12.8-32-32s12.8-32 32-32h640c19.2 0 32 12.8 32 32zM288 32c-19.2 0-32-12.8-32-32s12.8-32 32-32h448c19.2 0 32 12.8 32 32s-12.8 32-32 32h-448zM96 448h-64c-19.2 0-32-12.8-32-32s12.8-32 32-32h64c19.2 0 32 12.8 32 32s-12.8 32-32 32zM195.2 777.6c-12.8 12.8-32 12.8-44.8 0s-12.8-32 0-44.8l44.8-44.8c6.4-6.4 16-9.6 22.4-9.6s16 3.2 22.4 9.6c12.8 12.8 12.8 32 0 44.8l-44.8 44.8zM544 832v64c0 19.2-12.8 32-32 32s-32-12.8-32-32v-64c0-19.2 12.8-32 32-32s32 12.8 32 32zM828.8 688l44.8 44.8c12.8 12.8 12.8 32 0 44.8s-32 12.8-44.8 0l-44.8-44.8c-12.8-12.8-12.8-32 0-44.8 6.4-6.4 16-9.6 22.4-9.6s16 3.2 22.4 9.6zM992 448h-64c-19.2 0-32-12.8-32-32s12.8-32 32-32h64c19.2 0 32 12.8 32 32s-12.8 32-32 32zM224 416c0-19.2 12.8-32 32-32s32 12.8 32 32c0 124.8 99.2 224 224 224s224-99.2 224-224c0-19.2 12.8-32 32-32s32 12.8 32 32c0 160-128 288-288 288s-288-128-288-288z" />
<glyph unicode="&#xe631;" glyph-name="weather-outline_sun-fog-30" d="M992 320h-960c-19.2 0-32-12.8-32-32s12.8-32 32-32h960c19.2 0 32 12.8 32 32s-12.8 32-32 32zM896 160c0 19.2-12.8 32-32 32h-704c-19.2 0-32-12.8-32-32s12.8-32 32-32h704c19.2 0 32 12.8 32 32zM288 64c-19.2 0-32-12.8-32-32s12.8-32 32-32h448c19.2 0 32 12.8 32 32s-12.8 32-32 32h-448zM32 416c0-19.2 12.8-32 32-32s32 12.8 32 32c0 230.4 185.6 416 416 416s416-185.6 416-416c0-19.2 12.8-32 32-32s32 12.8 32 32c0 265.6-214.4 480-480 480s-480-214.4-480-480z" />
<glyph unicode="&#xe632;" glyph-name="weather-outline_sun-fog-43" d="M32 128h320c19.2 0 32 12.8 32 32s-12.8 32-32 32h-320c-19.2 0-32-12.8-32-32s12.8-32 32-32zM192 256h320c19.2 0 32 12.8 32 32s-12.8 32-32 32h-320c-19.2 0-32-12.8-32-32s12.8-32 32-32zM544 32c0 19.2-12.8 32-32 32h-320c-19.2 0-32-12.8-32-32s12.8-32 32-32h320c19.2 0 32 12.8 32 32zM32 384h64c19.2 0 32 12.8 32 32s-12.8 32-32 32h-64c-19.2 0-32-12.8-32-32s12.8-32 32-32zM150.4 732.8l44.8-44.8c6.4-6.4 16-9.6 22.4-9.6s16 3.2 22.4 9.6c12.8 12.8 12.8 32 0 44.8l-44.8 44.8c-12.8 12.8-32 12.8-44.8 0s-12.8-32 0-44.8zM512 928c-19.2 0-32-12.8-32-32v-64c0-19.2 12.8-32 32-32s32 12.8 32 32v64c0 19.2-12.8 32-32 32zM828.8 777.6l-44.8-44.8c-12.8-12.8-12.8-32 0-44.8 6.4-6.4 16-9.6 22.4-9.6s16 3.2 22.4 9.6l44.8 44.8c12.8 12.8 12.8 32 0 44.8s-32 12.8-44.8 0zM992 448h-64c-19.2 0-32-12.8-32-32s12.8-32 32-32h64c19.2 0 32 12.8 32 32s-12.8 32-32 32zM828.8 54.4c6.4-6.4 16-9.6 22.4-9.6s16 3.2 22.4 9.6c12.8 12.8 12.8 32 0 44.8l-44.8 44.8c-12.8 12.8-32 12.8-44.8 0s-12.8-32 0-44.8l44.8-44.8zM800 416c0 160-128 288-288 288s-288-128-288-288c0-19.2 12.8-32 32-32s32 12.8 32 32c0 124.8 99.2 224 224 224s224-99.2 224-224-99.2-224-224-224c-19.2 0-32-12.8-32-32s12.8-32 32-32c160 0 288 128 288 288z" />
<glyph unicode="&#xe633;" glyph-name="weather-outline_sun" d="M32 416h64c19.2 0 32 12.8 32 32s-12.8 32-32 32h-64c-19.2 0-32-12.8-32-32s12.8-32 32-32zM195.2 720c6.4-6.4 16-9.6 22.4-9.6s16 3.2 22.4 9.6c12.8 12.8 12.8 32 0 44.8l-44.8 44.8c-12.8 12.8-32 12.8-44.8 0s-12.8-32 0-44.8l44.8-44.8zM512 832c19.2 0 32 12.8 32 32v64c0 19.2-12.8 32-32 32s-32-12.8-32-32v-64c0-19.2 12.8-32 32-32zM806.4 710.4c9.6 0 16 3.2 22.4 9.6l44.8 44.8c12.8 12.8 12.8 32 0 44.8s-32 12.8-44.8 0l-44.8-44.8c-12.8-12.8-12.8-32 0-44.8 6.4-6.4 12.8-9.6 22.4-9.6zM992 480h-64c-19.2 0-32-12.8-32-32s12.8-32 32-32h64c19.2 0 32 12.8 32 32s-12.8 32-32 32zM828.8 176c-12.8 12.8-32 12.8-44.8 0s-12.8-32 0-44.8l44.8-44.8c6.4-6.4 16-9.6 22.4-9.6s16 3.2 22.4 9.6c12.8 12.8 12.8 32 0 44.8l-44.8 44.8zM480 32v-64c0-19.2 12.8-32 32-32s32 12.8 32 32v64c0 19.2-12.8 32-32 32s-32-12.8-32-32zM172.8 76.8c9.6 0 16 3.2 22.4 9.6l44.8 44.8c12.8 12.8 12.8 32 0 44.8s-32 12.8-44.8 0l-44.8-44.8c-12.8-12.8-12.8-32 0-44.8 6.4-6.4 12.8-9.6 22.4-9.6zM512 160c160 0 288 128 288 288s-128 288-288 288-288-128-288-288 128-288 288-288zM512 672c124.8 0 224-99.2 224-224s-99.2-224-224-224-224 99.2-224 224 99.2 224 224 224z" />
<glyph unicode="&#xe634;" glyph-name="weather-outline_wind" d="M0 608c0-19.2 12.8-32 32-32h560c89.6 0 163.2 73.6 163.2 163.2s-73.6 163.2-163.2 163.2c-70.4 0-131.2-44.8-153.6-108.8-6.4-16 3.2-35.2 19.2-41.6s35.2 3.2 41.6 19.2c12.8 38.4 51.2 67.2 92.8 67.2 54.4 0 99.2-44.8 99.2-99.2s-44.8-99.2-99.2-99.2h-560c-19.2 0-32-12.8-32-32zM329.6 320h-297.6c-19.2 0-32-12.8-32-32s12.8-32 32-32h297.6c54.4 0 99.2-44.8 99.2-99.2s-44.8-99.2-99.2-99.2c-41.6 0-80 25.6-92.8 67.2-6.4 16-25.6 25.6-41.6 19.2s-25.6-25.6-19.2-41.6c22.4-64 83.2-108.8 153.6-108.8 89.6 0 163.2 73.6 163.2 163.2s-73.6 163.2-163.2 163.2zM860.8 480h-828.8c-19.2 0-32-12.8-32-32s12.8-32 32-32h828.8c54.4 0 99.2-44.8 99.2-99.2s-44.8-99.2-99.2-99.2c-41.6 0-80 25.6-92.8 67.2-6.4 16-25.6 25.6-41.6 19.2s-25.6-25.6-19.2-41.6c22.4-64 83.2-108.8 153.6-108.8 89.6 0 163.2 73.6 163.2 163.2s-73.6 163.2-163.2 163.2z" />
<glyph unicode="&#xe635;" glyph-name="users-outline_add-27" d="M160 672v-64c0-140.8 115.2-256 256-256s256 115.2 256 256v64c0 140.8-115.2 256-256 256s-256-115.2-256-256zM608 672v-64c0-105.6-86.4-192-192-192s-192 86.4-192 192v64c0 105.6 86.4 192 192 192s192-86.4 192-192zM800 416c-89.6 0-166.4-54.4-201.6-128-6.4 0-12.8 0-22.4 0h-320c-124.8 0-224-99.2-224-224v-64c0-19.2 12.8-32 32-32h736c124.8 0 224 99.2 224 224s-99.2 224-224 224zM96 32v32c0 89.6 70.4 160 160 160h320c0 0 3.2 0 3.2 0 0-9.6-3.2-22.4-3.2-32 0-64 25.6-118.4 67.2-160h-547.2zM800 32c-89.6 0-160 70.4-160 160s70.4 160 160 160 160-70.4 160-160-70.4-160-160-160zM864 224h-32v32c0 19.2-12.8 32-32 32s-32-12.8-32-32v-32h-32c-19.2 0-32-12.8-32-32s12.8-32 32-32h32v-32c0-19.2 12.8-32 32-32s32 12.8 32 32v32h32c19.2 0 32 12.8 32 32s-12.8 32-32 32z" />
<glyph unicode="&#xe636;" glyph-name="users-outline_add-29" d="M512 352c140.8 0 256 115.2 256 256v64c0 140.8-115.2 256-256 256s-256-115.2-256-256v-64c0-140.8 115.2-256 256-256zM320 672c0 105.6 86.4 192 192 192s192-86.4 192-192v-64c0-105.6-86.4-192-192-192s-192 86.4-192 192v64zM960 32h-860.8c16 108.8 108.8 192 220.8 192h256c19.2 0 32 12.8 32 32s-12.8 32-32 32h-256c-160 0-288-128-288-288 0-19.2 12.8-32 32-32h896c19.2 0 32 12.8 32 32s-12.8 32-32 32zM992 288h-96v96c0 19.2-12.8 32-32 32s-32-12.8-32-32v-96h-96c-19.2 0-32-12.8-32-32s12.8-32 32-32h96v-96c0-19.2 12.8-32 32-32s32 12.8 32 32v96h96c19.2 0 32 12.8 32 32s-12.8 32-32 32z" />
<glyph unicode="&#xe637;" glyph-name="users-outline_badge-13" d="M416 480v32c0 54.4-41.6 96-96 96s-96-41.6-96-96v-32c0-54.4 41.6-96 96-96s96 41.6 96 96zM352 480c0-19.2-12.8-32-32-32s-32 12.8-32 32v32c0 19.2 12.8 32 32 32s32-12.8 32-32v-32zM576 448c0-19.2 12.8-32 32-32h256c19.2 0 32 12.8 32 32s-12.8 32-32 32h-256c-19.2 0-32-12.8-32-32zM768 352h-160c-19.2 0-32-12.8-32-32s12.8-32 32-32h160c19.2 0 32 12.8 32 32s-12.8 32-32 32zM384 384h-128c-70.4 0-128-57.6-128-128 0-19.2 12.8-32 32-32h320c0 0 0 0 0 0 19.2 0 32 12.8 32 32 0 3.2 0 6.4 0 6.4-3.2 67.2-60.8 121.6-128 121.6zM201.6 288c9.6 19.2 32 32 54.4 32h128c22.4 0 44.8-12.8 54.4-32h-236.8zM992 864h-160c-19.2 0-32-12.8-32-32s-12.8-32-32-32-32 12.8-32 32c0 19.2-12.8 32-32 32h-128c-19.2 0-32-12.8-32-32s-12.8-32-32-32-32 12.8-32 32c0 19.2-12.8 32-32 32h-128c-19.2 0-32-12.8-32-32s-12.8-32-32-32-32 12.8-32 32c0 19.2-12.8 32-32 32h-160c-19.2 0-32-12.8-32-32v-768c0-19.2 12.8-32 32-32h960c19.2 0 32 12.8 32 32v768c0 19.2-12.8 32-32 32zM960 96h-896v704h102.4c12.8-38.4 48-64 89.6-64s76.8 25.6 89.6 64h73.6c12.8-38.4 48-64 89.6-64s76.8 25.6 89.6 64h73.6c12.8-38.4 48-64 89.6-64s76.8 25.6 89.6 64h108.8v-704z" />
<glyph unicode="&#xe638;" glyph-name="users-outline_badge-14" d="M576 448c0-19.2 12.8-32 32-32h256c19.2 0 32 12.8 32 32s-12.8 32-32 32h-256c-19.2 0-32-12.8-32-32zM768 352h-160c-19.2 0-32-12.8-32-32s12.8-32 32-32h160c19.2 0 32 12.8 32 32s-12.8 32-32 32zM992 864h-160c-19.2 0-32-12.8-32-32s-12.8-32-32-32-32 12.8-32 32c0 19.2-12.8 32-32 32h-128c-19.2 0-32-12.8-32-32s-12.8-32-32-32-32 12.8-32 32c0 19.2-12.8 32-32 32h-128c-19.2 0-32-12.8-32-32s-12.8-32-32-32-32 12.8-32 32c0 19.2-12.8 32-32 32h-160c-19.2 0-32-12.8-32-32v-768c0-19.2 12.8-32 32-32h960c19.2 0 32 12.8 32 32v768c0 19.2-12.8 32-32 32zM960 96h-896v704h102.4c12.8-38.4 48-64 89.6-64s76.8 25.6 89.6 64h73.6c12.8-38.4 48-64 89.6-64s76.8 25.6 89.6 64h73.6c12.8-38.4 48-64 89.6-64s76.8 25.6 89.6 64h108.8v-704zM480 576h-288c-19.2 0-32-12.8-32-32v-288c0-19.2 12.8-32 32-32h288c19.2 0 32 12.8 32 32v288c0 19.2-12.8 32-32 32zM448 288h-224v224h224v-224z" />
<glyph unicode="&#xe639;" glyph-name="users-outline_badge-15" d="M448 448h-256c-19.2 0-32-12.8-32-32v-256c0-19.2 12.8-32 32-32h256c19.2 0 32 12.8 32 32v256c0 19.2-12.8 32-32 32zM416 192h-192v192h192v-192zM992 704h-352v96c0 70.4-57.6 128-128 128s-128-57.6-128-128v-96h-352c-19.2 0-32-12.8-32-32v-672c0-19.2 12.8-32 32-32h960c19.2 0 32 12.8 32 32v672c0 19.2-12.8 32-32 32zM448 800c0 35.2 28.8 64 64 64s64-28.8 64-64v-128c0 0 0 0 0 0s0 0 0 0v-32h-128v160zM960 32h-896v608h320v-32c0-19.2 12.8-32 32-32h192c19.2 0 32 12.8 32 32v32h320v-608zM576 384c-19.2 0-32-12.8-32-32s12.8-32 32-32h256c19.2 0 32 12.8 32 32s-12.8 32-32 32h-256zM736 256h-160c-19.2 0-32-12.8-32-32s12.8-32 32-32h160c19.2 0 32 12.8 32 32s-12.8 32-32 32zM512 800c-19.2 0-32-12.8-32-32v-32c0-19.2 12.8-32 32-32s32 12.8 32 32v32c0 19.2-12.8 32-32 32z" />
<glyph unicode="&#xe63a;" glyph-name="users-outline_circle-08" d="M512 704c-105.6 0-192-86.4-192-192v-96c0-105.6 86.4-192 192-192s192 86.4 192 192v96c0 105.6-86.4 192-192 192zM640 416c0-70.4-57.6-128-128-128s-128 57.6-128 128v96c0 70.4 57.6 128 128 128s128-57.6 128-128v-96zM512 960c-281.6 0-512-230.4-512-512s230.4-512 512-512 512 230.4 512 512-230.4 512-512 512zM307.2 48c38.4 28.8 89.6 48 137.6 48h131.2c51.2 0 99.2-16 137.6-48-60.8-32-131.2-48-204.8-48-70.4 0-140.8 19.2-201.6 48zM774.4 86.4c-54.4 48-124.8 73.6-198.4 73.6h-128c-73.6 0-140.8-25.6-195.2-73.6-115.2 80-188.8 211.2-188.8 361.6 0 246.4 201.6 448 448 448s448-201.6 448-448c0-150.4-73.6-281.6-185.6-361.6z" />
<glyph unicode="&#xe63b;" glyph-name="users-outline_circle-09" d="M486.4-64c9.6 0 16 0 25.6 0 272 0 499.2 214.4 512 486.4 12.8 284.8-204.8 524.8-486.4 537.6-284.8 12.8-524.8-204.8-537.6-486.4-12.8-284.8 204.8-524.8 486.4-537.6zM489.6 0c-92.8 3.2-179.2 38.4-249.6 92.8 9.6 70.4 48 96 128 121.6 48 16 83.2 54.4 102.4 112 12.8-3.2 25.6-3.2 41.6-3.2 12.8 0 28.8 3.2 41.6 3.2 19.2-57.6 51.2-96 102.4-112 80-25.6 118.4-51.2 128-121.6-80-64-182.4-96-294.4-92.8zM512 384c-70.4 0-128 57.6-128 128v64c0 70.4 57.6 128 128 128s128-57.6 128-128v-64c0-70.4-57.6-128-128-128zM512 896c6.4 0 12.8 0 22.4 0 246.4-12.8 435.2-224 425.6-470.4-6.4-112-51.2-211.2-121.6-284.8-25.6 80-92.8 108.8-163.2 134.4-35.2 12.8-54.4 44.8-60.8 73.6 54.4 35.2 89.6 92.8 89.6 163.2v64c0 105.6-86.4 192-192 192s-192-86.4-192-192v-64c0-70.4 35.2-128 92.8-163.2-9.6-32-25.6-64-60.8-73.6-67.2-22.4-137.6-51.2-163.2-131.2-80 86.4-128 201.6-121.6 326.4 9.6 236.8 204.8 425.6 444.8 425.6z" />
<glyph unicode="&#xe63c;" glyph-name="users-outline_circle-10" d="M512-64c281.6 0 512 230.4 512 512s-230.4 512-512 512-512-230.4-512-512 230.4-512 512-512zM240 92.8v35.2c0 22.4 12.8 44.8 32 54.4l156.8 89.6c25.6-12.8 54.4-19.2 83.2-19.2s57.6 6.4 83.2 19.2l156.8-89.6c19.2-12.8 32-32 32-54.4v-35.2c-73.6-57.6-169.6-92.8-272-92.8s-198.4 35.2-272 92.8zM640 448c0-70.4-57.6-128-128-128s-128 57.6-128 128v96c0 70.4 57.6 128 128 128s128-57.6 128-128v-96zM512 896c246.4 0 448-201.6 448-448 0-112-41.6-217.6-112-294.4-6.4 38.4-28.8 70.4-64 89.6l-131.2 76.8c32 35.2 51.2 80 51.2 131.2v96c0 105.6-86.4 192-192 192s-192-86.4-192-192v-96c0-51.2 19.2-96 51.2-131.2l-131.2-76.8c-32-19.2-57.6-51.2-64-89.6-70.4 76.8-112 182.4-112 294.4 0 246.4 201.6 448 448 448z" />
<glyph unicode="&#xe63d;" glyph-name="users-outline_contacts" d="M64-64h732.8c54.4 0 99.2 41.6 99.2 96v384h64c19.2 0 32 12.8 32 32v320c0 19.2-12.8 32-32 32h-64v64c0 54.4-44.8 96-99.2 96h-732.8c-19.2 0-32-12.8-32-32v-960c0-19.2 12.8-32 32-32zM928 480h-32v96h32v-96zM928 736v-96h-32v96h32zM832 864v-832c0-19.2-16-32-35.2-32h-572.8v896h572.8c19.2 0 35.2-12.8 35.2-32zM96 896h64v-896h-64v896zM320 224h416c19.2 0 32 12.8 32 32v96c0 12.8-6.4 22.4-16 28.8l-108.8 64c16 22.4 28.8 51.2 28.8 83.2v32c0 80-64 144-144 144s-144-64-144-144v-32c0-32 9.6-60.8 28.8-83.2l-108.8-64c-9.6-6.4-16-16-16-28.8v-96c0-19.2 12.8-32 32-32zM448 560c0 44.8 35.2 80 80 80s80-35.2 80-80v-32c0-25.6-12.8-51.2-32-64 0 0 0 0 0 0-16-9.6-32-16-48-16s-32 6.4-44.8 16c0 0 0 0 0 0-19.2 16-32 38.4-32 64v32zM352 332.8l112 67.2c19.2-9.6 41.6-16 64-16s44.8 6.4 64 16l112-67.2v-44.8h-352v44.8z" />
<glyph unicode="&#xe63e;" glyph-name="users-outline_delete-28" d="M672 608v64c0 140.8-115.2 256-256 256s-256-115.2-256-256v-64c0-140.8 115.2-256 256-256s256 115.2 256 256zM224 608v64c0 105.6 86.4 192 192 192s192-86.4 192-192v-64c0-105.6-86.4-192-192-192s-192 86.4-192 192zM800 416c-89.6 0-166.4-54.4-201.6-128-6.4 0-12.8 0-22.4 0h-320c-124.8 0-224-99.2-224-224v-64c0-19.2 12.8-32 32-32h736c124.8 0 224 99.2 224 224s-99.2 224-224 224zM96 32v32c0 89.6 70.4 160 160 160h320c0 0 3.2 0 3.2 0 0-9.6-3.2-22.4-3.2-32 0-64 25.6-118.4 67.2-160h-547.2zM800 32c-89.6 0-160 70.4-160 160s70.4 160 160 160 160-70.4 160-160-70.4-160-160-160zM864 224h-128c-19.2 0-32-12.8-32-32s12.8-32 32-32h128c19.2 0 32 12.8 32 32s-12.8 32-32 32z" />
<glyph unicode="&#xe63f;" glyph-name="users-outline_delete-30" d="M512 352c140.8 0 256 115.2 256 256v64c0 140.8-115.2 256-256 256s-256-115.2-256-256v-64c0-140.8 115.2-256 256-256zM320 672c0 105.6 86.4 192 192 192s192-86.4 192-192v-64c0-105.6-86.4-192-192-192s-192 86.4-192 192v64zM960 32h-860.8c16 108.8 108.8 192 220.8 192h256c19.2 0 32 12.8 32 32s-12.8 32-32 32h-256c-160 0-288-128-288-288 0-19.2 12.8-32 32-32h896c19.2 0 32 12.8 32 32s-12.8 32-32 32zM992 288h-256c-19.2 0-32-12.8-32-32s12.8-32 32-32h256c19.2 0 32 12.8 32 32s-12.8 32-32 32z" />
<glyph unicode="&#xe640;" glyph-name="users-outline_man-20" d="M1004.8 956.8c-3.2 3.2-9.6 3.2-12.8 3.2h-288c-19.2 0-32-12.8-32-32s12.8-32 32-32h211.2l-227.2-227.2c-73.6 60.8-169.6 99.2-272 99.2-230.4 0-416-185.6-416-416s185.6-416 416-416 416 185.6 416 416c0 102.4-38.4 198.4-99.2 268.8l227.2 230.4v-211.2c0-19.2 12.8-32 32-32s32 12.8 32 32v288c0 3.2 0 9.6-3.2 12.8-3.2 6.4-9.6 12.8-16 16zM416 0c-195.2 0-352 156.8-352 352s156.8 352 352 352 352-156.8 352-352-156.8-352-352-352z" />
<glyph unicode="&#xe641;" glyph-name="users-outline_man-23" d="M32 83.2v-115.2c0-19.2 12.8-32 32-32h896c19.2 0 32 12.8 32 32v115.2c0 57.6-32 112-83.2 140.8l-201.6 108.8c57.6 51.2 92.8 128 92.8 211.2v128c0 160-128 288-288 288s-288-128-288-288v-128c0-83.2 35.2-156.8 92.8-211.2l-201.6-108.8c-51.2-28.8-83.2-80-83.2-140.8zM512 896c124.8 0 224-99.2 224-224v-28.8c-44.8 9.6-80 35.2-99.2 73.6-6.4 12.8-16 19.2-28.8 19.2s-22.4-6.4-28.8-19.2c-32-67.2-105.6-108.8-195.2-108.8-38.4 0-60.8 19.2-96 44.8v0 19.2c0 124.8 99.2 224 224 224zM288 544v28.8c25.6-16 54.4-28.8 96-28.8 92.8 0 176 38.4 224 99.2 32-35.2 76.8-57.6 128-67.2v-32c0-76.8-38.4-144-96-185.6-3.2 0-6.4-3.2-12.8-6.4-35.2-19.2-73.6-32-115.2-32-44.8 0-83.2 12.8-118.4 35.2 0 0 0 0 0 0-64 38.4-105.6 108.8-105.6 188.8zM147.2 169.6l227.2 124.8c41.6-22.4 89.6-35.2 137.6-35.2s99.2 12.8 137.6 35.2l227.2-124.8c32-16 51.2-48 51.2-83.2v-86.4h-832v83.2c0 35.2 19.2 67.2 51.2 86.4z" />
<glyph unicode="&#xe642;" glyph-name="users-outline_man-glasses" d="M908.8 224l-198.4 108.8c48 44.8 76.8 102.4 86.4 169.6 41.6 38.4 67.2 92.8 67.2 153.6 0 6.4 0 12.8 0 19.2 0 16-16 28.8-32 28.8h-32c-16 144-137.6 256-284.8 256s-272-112-288-256h-35.2c-16 0-32-12.8-32-28.8 0-6.4 0-12.8 0-19.2 0-60.8 25.6-115.2 67.2-153.6 9.6-67.2 41.6-128 86.4-169.6l-198.4-108.8c-51.2-28.8-83.2-80-83.2-140.8v-115.2c0-19.2 12.8-32 32-32h896c19.2 0 32 12.8 32 32v115.2c0 60.8-32 112-83.2 140.8zM512 896c112 0 204.8-83.2 220.8-192h-441.6c16 108.8 108.8 192 220.8 192zM800 640c-6.4-70.4-70.4-128-144-128-48 0-89.6 22.4-118.4 60.8-6.4 9.6-16 12.8-25.6 12.8s-19.2-6.4-25.6-12.8c-28.8-38.4-70.4-60.8-118.4-60.8-35.2 0-64 12.8-89.6 32 0 0-3.2 3.2-3.2 3.2-28.8 22.4-44.8 54.4-51.2 92.8h576zM368 448c54.4 0 105.6 22.4 144 57.6 38.4-38.4 89.6-57.6 144-57.6 22.4 0 41.6 3.2 64 9.6-19.2-41.6-48-80-86.4-102.4 0 0 0 0 0 0-35.2-22.4-73.6-32-118.4-32-41.6 0-83.2 12.8-115.2 32-3.2 3.2-3.2 3.2-6.4 3.2-35.2 25.6-67.2 57.6-83.2 99.2 16-6.4 35.2-9.6 57.6-9.6zM928 0h-832v83.2c0 35.2 19.2 67.2 51.2 83.2l227.2 124.8c41.6-22.4 89.6-35.2 140.8-35.2s99.2 12.8 140.8 35.2l227.2-124.8c32-16 51.2-48 51.2-83.2v-83.2z" />
<glyph unicode="&#xe643;" glyph-name="users-outline_mobile-contact" d="M256-64h512c54.4 0 96 41.6 96 96v832c0 54.4-41.6 96-96 96h-512c-54.4 0-96-41.6-96-96v-832c0-54.4 41.6-96 96-96zM224 864c0 19.2 12.8 32 32 32h512c19.2 0 32-12.8 32-32v-832c0-19.2-12.8-32-32-32h-512c-19.2 0-32 12.8-32 32v832zM288 192h448c19.2 0 32 12.8 32 32v576c0 19.2-12.8 32-32 32h-448c-19.2 0-32-12.8-32-32v-576c0-19.2 12.8-32 32-32zM320 256v48l140.8 92.8c16-6.4 35.2-12.8 51.2-12.8s35.2 3.2 51.2 12.8l140.8-92.8v-48h-384zM576 512c0-22.4-9.6-41.6-28.8-51.2 0 0 0 0 0 0-9.6-9.6-22.4-12.8-35.2-12.8-35.2 0-64 28.8-64 64v32c0 35.2 28.8 64 64 64s64-28.8 64-64v-32zM704 768v-387.2l-86.4 57.6c16 22.4 22.4 44.8 22.4 73.6v32c0 70.4-57.6 128-128 128s-128-57.6-128-128v-32c0-28.8 9.6-54.4 22.4-73.6l-86.4-57.6v387.2h384zM576 96c0-35.346-28.654-64-64-64s-64 28.654-64 64c0 35.346 28.654 64 64 64s64-28.654 64-64z" />
<glyph unicode="&#xe644;" glyph-name="users-outline_multiple-11" d="M992 608h-960c-19.2 0-32-12.8-32-32v-160c0-9.6 3.2-16 9.6-22.4l86.4-86.4v-211.2c0-19.2 12.8-32 32-32h160c19.2 0 32 12.8 32 32v179.2l64-64v-243.2c0-19.2 12.8-32 32-32h192c19.2 0 32 12.8 32 32v243.2l64 64v-179.2c0-19.2 12.8-32 32-32h160c19.2 0 32 12.8 32 32v211.2l86.4 86.4c6.4 6.4 9.6 12.8 9.6 22.4v160c0 19.2-12.8 32-32 32zM265.6 342.4c-6.4-6.4-9.6-12.8-9.6-22.4v-192h-96v192c0 9.6-3.2 16-9.6 22.4l-86.4 86.4v115.2h224v-179.2l-22.4-22.4zM672 332.8l-86.4-86.4c-6.4-6.4-9.6-12.8-9.6-22.4v-224h-128v224c0 9.6-3.2 16-9.6 22.4l-86.4 86.4v211.2h320v-211.2zM960 428.8l-86.4-86.4c-6.4-6.4-9.6-12.8-9.6-22.4v-192h-96v192c0 9.6-3.2 16-9.6 22.4l-22.4 22.4v179.2h224v-115.2zM704 768c0-70.4 57.6-128 128-128s128 57.6 128 128-57.6 128-128 128-128-57.6-128-128zM896 768c0-35.2-28.8-64-64-64s-64 28.8-64 64 28.8 64 64 64 64-28.8 64-64zM64 768c0-70.4 57.6-128 128-128s128 57.6 128 128-57.6 128-128 128-128-57.6-128-128zM256 768c0-35.2-28.8-64-64-64s-64 28.8-64 64 28.8 64 64 64 64-28.8 64-64zM352 800c0-89.6 70.4-160 160-160s160 70.4 160 160-70.4 160-160 160-160-70.4-160-160zM608 800c0-54.4-41.6-96-96-96s-96 41.6-96 96 41.6 96 96 96 96-41.6 96-96z" />
<glyph unicode="&#xe645;" glyph-name="users-outline_multiple-19" d="M960 566.4l-80 44.8c9.6 22.4 16 48 16 76.8v64c0 96-80 176-176 176-73.6 0-137.6-48-163.2-112-38.4 28.8-86.4 48-140.8 48-124.8 0-224-99.2-224-224v-96c0-54.4 19.2-102.4 51.2-140.8l-185.6-124.8c-35.2-22.4-57.6-64-57.6-105.6v-172.8c0-19.2 12.8-32 32-32h768c19.2 0 32 12.8 32 32v172.8c0 32-12.8 60.8-32 83.2h192c19.2 0 32 12.8 32 32v166.4c0 48-25.6 89.6-64 112zM720 864c60.8 0 112-51.2 112-112v-64c0-60.8-51.2-112-112-112-32 0-57.6 12.8-80 35.2v28.8c0 41.6-12.8 80-32 115.2 0 60.8 51.2 108.8 112 108.8zM256 640c0 89.6 70.4 160 160 160s160-70.4 160-160v-38.4c0 0 0 0 0 0v-57.6c0-89.6-70.4-160-160-160s-160 70.4-160 160v96zM768 32h-704v140.8c0 22.4 9.6 41.6 28.8 54.4l198.4 131.2c35.2-25.6 80-38.4 124.8-38.4s89.6 12.8 124.8 38.4l198.4-131.2c19.2-12.8 28.8-32 28.8-54.4v-140.8zM960 320h-246.4l-124.8 83.2c28.8 35.2 48 80 51.2 128 25.6-12.8 51.2-19.2 80-19.2 48 0 89.6 19.2 121.6 48l86.4-48c19.2-12.8 32-32 32-54.4v-137.6z" />
<glyph unicode="&#xe646;" glyph-name="users-outline_network" d="M512 576c19.2 0 32 12.8 32 32v99.2c54.4 12.8 96 64 96 124.8 0 70.4-57.6 128-128 128s-128-57.6-128-128c0-60.8 41.6-108.8 96-124.8v-99.2c0-19.2 12.8-32 32-32zM448 832c0 35.2 28.8 64 64 64s64-28.8 64-64-28.8-64-64-64-64 28.8-64 64zM128 544c22.4 0 44.8 6.4 64 19.2l73.6-73.6c6.4-6.4 12.8-9.6 22.4-9.6s16 3.2 22.4 9.6c12.8 12.8 12.8 32 0 44.8l-73.6 73.6c12.8 19.2 19.2 41.6 19.2 64 0 70.4-57.6 128-128 128s-128-57.6-128-128 57.6-128 128-128zM128 736c35.2 0 64-28.8 64-64s-28.8-64-64-64-64 28.8-64 64 28.8 64 64 64zM896 800c-70.4 0-128-57.6-128-128 0-22.4 6.4-44.8 19.2-64l-73.6-73.6c-12.8-12.8-12.8-32 0-44.8 6.4-6.4 16-9.6 22.4-9.6s16 3.2 22.4 9.6l73.6 73.6c19.2-12.8 41.6-19.2 64-19.2 70.4 0 128 57.6 128 128s-57.6 128-128 128zM896 608c-19.2 0-35.2 6.4-44.8 19.2 0 0 0 0 0 0s0 0 0 0c-12.8 9.6-19.2 25.6-19.2 44.8 0 35.2 28.8 64 64 64s64-28.8 64-64-28.8-64-64-64zM704 320c0 105.6-86.4 192-192 192s-192-86.4-192-192v-32c0-44.8 16-83.2 38.4-115.2l-150.4-80c-9.6-6.4-16-16-16-28.8v-96c0-19.2 12.8-32 32-32h576c19.2 0 32 12.8 32 32v96c0 12.8-6.4 22.4-16 28.8l-150.4 80c25.6 32 38.4 73.6 38.4 115.2v32zM384 320c0 70.4 57.6 128 128 128s128-57.6 128-128v-32c0-70.4-57.6-128-128-128s-128 57.6-128 128v32zM768 0h-512v44.8l153.6 80c28.8-19.2 64-28.8 102.4-28.8s73.6 9.6 102.4 28.8l153.6-80v-44.8z" />
<glyph unicode="&#xe647;" glyph-name="users-outline_parent" d="M963.2 438.4l-147.2 92.8c48 41.6 80 102.4 80 172.8v32c0 124.8-99.2 224-224 224s-224-99.2-224-224v-32c0-70.4 32-131.2 80-172.8l-38.4-22.4c-35.2 76.8-112 131.2-201.6 131.2-124.8 0-224-99.2-224-224v-32c0-64 25.6-121.6 70.4-163.2l-86.4-73.6c-32-22.4-48-57.6-48-96v-83.2c0-19.2 12.8-32 32-32h960c19.2 0 32 12.8 32 32v361.6c0 44.8-22.4 86.4-60.8 108.8zM512 704v32c0 89.6 70.4 160 160 160s160-70.4 160-160v-32c0-89.6-70.4-160-160-160s-160 70.4-160 160zM128 384v32c0 89.6 70.4 160 160 160s160-70.4 160-160v-32c0-89.6-70.4-160-160-160s-160 70.4-160 160zM64 51.2c0 19.2 9.6 38.4 22.4 48l102.4 83.2c28.8-12.8 64-22.4 99.2-22.4s70.4 9.6 99.2 22.4l102.4-83.2c16-12.8 22.4-28.8 22.4-48v-51.2h-448v51.2zM960 0h-384v51.2c0 38.4-16 73.6-48 99.2l-86.4 73.6c44.8 38.4 70.4 96 70.4 160v32c0 9.6 0 19.2-3.2 28.8l80 51.2c25.6-9.6 54.4-16 83.2-16s57.6 6.4 83.2 16l176-112c19.2-12.8 28.8-32 28.8-54.4v-329.6z" />
<glyph unicode="&#xe648;" glyph-name="users-outline_single-01" d="M512 352c140.8 0 256 115.2 256 256v64c0 140.8-115.2 256-256 256s-256-115.2-256-256v-64c0-140.8 115.2-256 256-256zM320 672c0 105.6 86.4 192 192 192s192-86.4 192-192v-64c0-105.6-86.4-192-192-192s-192 86.4-192 192v64zM64-32h896c19.2 0 32 12.8 32 32 0 160-128 288-288 288h-384c-160 0-288-128-288-288 0-19.2 12.8-32 32-32zM320 224h384c112 0 204.8-83.2 220.8-192h-825.6c16 108.8 108.8 192 220.8 192z" />
<glyph unicode="&#xe649;" glyph-name="users-outline_single-02" d="M512 352c140.8 0 256 115.2 256 256v64c0 140.8-115.2 256-256 256s-256-115.2-256-256v-64c0-140.8 115.2-256 256-256zM320 672c0 105.6 86.4 192 192 192s192-86.4 192-192v-64c0-105.6-86.4-192-192-192s-192 86.4-192 192v64zM160-32h704c19.2 0 32 12.8 32 32v64c0 124.8-99.2 224-224 224h-320c-124.8 0-224-99.2-224-224v-64c0-19.2 12.8-32 32-32zM192 64c0 89.6 70.4 160 160 160h320c89.6 0 160-70.4 160-160v-32h-640v32z" />
<glyph unicode="&#xe64a;" glyph-name="users-outline_single-03" d="M720 342.4c48 54.4 80 124.8 80 201.6v128c0 160-128 288-288 288s-288-128-288-288v-128c0-76.8 32-147.2 80-201.6-172.8-35.2-304-188.8-304-374.4 0-19.2 12.8-32 32-32h960c19.2 0 32 12.8 32 32 0 185.6-131.2 339.2-304 374.4zM288 672c0 124.8 99.2 224 224 224s224-99.2 224-224v-128c0-83.2-44.8-156.8-112-195.2 0 0 0 0 0 0-32-19.2-70.4-28.8-108.8-28.8-124.8 0-224 99.2-224 224v128zM64 0c16 160 150.4 284.8 316.8 288 38.4-19.2 83.2-32 131.2-32s92.8 12.8 131.2 32c163.2 0 300.8-128 316.8-288h-896z" />
<glyph unicode="&#xe64b;" glyph-name="users-outline_single-04" d="M64-64h896c19.2 0 32 12.8 32 32 0 195.2-115.2 249.6-246.4 291.2-64 19.2-92.8 76.8-102.4 128 76.8 44.8 124.8 128 124.8 220.8v96c0 140.8-115.2 256-256 256s-256-115.2-256-256v-96c0-92.8 51.2-176 124.8-220.8-12.8-51.2-41.6-105.6-102.4-128-131.2-41.6-246.4-96-246.4-291.2 0-19.2 12.8-32 32-32zM320 608v96c0 105.6 86.4 192 192 192s192-86.4 192-192v-96c0-105.6-86.4-192-192-192s-192 86.4-192 192zM297.6 198.4c89.6 28.8 128 102.4 144 163.2 22.4-6.4 44.8-9.6 70.4-9.6s48 3.2 70.4 9.6c16-57.6 54.4-134.4 144-163.2 128-41.6 192-83.2 201.6-198.4h-832c9.6 118.4 73.6 156.8 201.6 198.4z" />
<glyph unicode="&#xe64c;" glyph-name="users-outline_single-05" d="M64-64h896c19.2 0 32 12.8 32 32v115.2c0 57.6-32 112-83.2 140.8l-201.6 108.8c57.6 51.2 92.8 128 92.8 211.2v128c0 160-128 288-288 288s-288-128-288-288v-128c0-83.2 35.2-156.8 92.8-211.2l-201.6-108.8c-51.2-28.8-83.2-80-83.2-140.8v-115.2c0-19.2 12.8-32 32-32zM288 544v128c0 124.8 99.2 224 224 224s224-99.2 224-224v-128c0-76.8-38.4-144-96-185.6-3.2 0-6.4-3.2-12.8-6.4-35.2-19.2-73.6-32-115.2-32-44.8 0-83.2 12.8-118.4 35.2 0 0 0 0 0 0-64 38.4-105.6 108.8-105.6 188.8zM96 83.2c0 35.2 19.2 67.2 51.2 83.2l227.2 124.8c41.6-22.4 89.6-35.2 137.6-35.2s99.2 12.8 137.6 35.2l227.2-124.8c32-16 51.2-48 51.2-83.2v-83.2h-832v83.2z" />
<glyph unicode="&#xe64d;" glyph-name="users-outline_single-body" d="M384 211.2v-243.2c0-19.2 12.8-32 32-32h192c19.2 0 32 12.8 32 32v243.2l86.4 86.4c6.4 6.4 9.6 12.8 9.6 22.4v256c0 19.2-12.8 32-32 32h-384c-19.2 0-32-12.8-32-32v-256c0-9.6 3.2-16 9.6-22.4l86.4-86.4zM352 544h320v-211.2l-86.4-86.4c-6.4-6.4-9.6-12.8-9.6-22.4v-224h-128v224c0 9.6-3.2 16-9.6 22.4l-86.4 86.4v211.2zM512 640c89.6 0 160 70.4 160 160s-70.4 160-160 160-160-70.4-160-160 70.4-160 160-160zM512 896c54.4 0 96-41.6 96-96s-41.6-96-96-96-96 41.6-96 96 41.6 96 96 96z" />
<glyph unicode="&#xe64e;" glyph-name="users-outline_single-position" d="M512-64c179.2 0 480 28.8 480 144 0 102.4-240 131.2-352 140.8v118.4l86.4 86.4c6.4 6.4 9.6 12.8 9.6 22.4v128c0 19.2-12.8 32-32 32h-384c-19.2 0-32-12.8-32-32v-128c0-9.6 3.2-16 9.6-22.4l86.4-86.4v-118.4c-112-9.6-352-38.4-352-140.8 0-115.2 300.8-144 480-144zM352 460.8v83.2h320v-83.2l-86.4-86.4c-6.4-6.4-9.6-12.8-9.6-22.4v-224h-128v224c0 9.6-3.2 16-9.6 22.4l-86.4 86.4zM384 156.8v-60.8c0-19.2 12.8-32 32-32h192c19.2 0 32 12.8 32 32v60.8c188.8-12.8 281.6-57.6 288-73.6-9.6-28.8-160-80-416-80s-406.4 48-416 76.8c6.4 19.2 99.2 60.8 288 76.8zM512 640c89.6 0 160 70.4 160 160s-70.4 160-160 160-160-70.4-160-160 70.4-160 160-160zM512 896c54.4 0 96-41.6 96-96s-41.6-96-96-96-96 41.6-96 96 41.6 96 96 96z" />
<glyph unicode="&#xe64f;" glyph-name="users-outline_square-31" d="M512 256c105.6 0 192 86.4 192 192v96c0 105.6-86.4 192-192 192s-192-86.4-192-192v-96c0-105.6 86.4-192 192-192zM384 544c0 70.4 57.6 128 128 128s128-57.6 128-128v-96c0-70.4-57.6-128-128-128s-128 57.6-128 128v96zM992 960h-960c-19.2 0-32-12.8-32-32v-960c0-19.2 12.8-32 32-32h960c19.2 0 32 12.8 32 32v960c0 19.2-12.8 32-32 32zM195.2 0c16 73.6 80 128 156.8 128h320c76.8 0 140.8-54.4 156.8-128h-633.6zM960 0h-67.2c-16 108.8-108.8 192-220.8 192h-320c-112 0-204.8-83.2-220.8-192h-67.2v896h896v-896z" />
<glyph unicode="&#xe650;" glyph-name="users-outline_square-32" d="M992 960h-960c-19.2 0-32-12.8-32-32v-960c0-19.2 12.8-32 32-32h960c19.2 0 32 12.8 32 32v960c0 19.2-12.8 32-32 32zM224 28.8c3.2 70.4 41.6 86.4 121.6 112l22.4 6.4c48 16 83.2 54.4 102.4 112 12.8-3.2 25.6-3.2 41.6-3.2s28.8 3.2 41.6 3.2c19.2-57.6 51.2-96 102.4-112l22.4-6.4c83.2-25.6 118.4-41.6 121.6-108.8v-32h-576v28.8zM512 320c-70.4 0-128 57.6-128 128v64c0 70.4 57.6 128 128 128s128-57.6 128-128v-64c0-70.4-57.6-128-128-128zM960 0h-96v35.2c-6.4 118.4-89.6 144-166.4 169.6l-22.4 6.4c-35.2 12.8-54.4 44.8-60.8 73.6 54.4 35.2 89.6 92.8 89.6 163.2v64c0 105.6-86.4 192-192 192s-192-86.4-192-192v-64c0-70.4 35.2-128 92.8-163.2-9.6-32-25.6-64-60.8-73.6l-22.4-6.4c-80-25.6-160-51.2-166.4-169.6v-32h-99.2v892.8h896v-896z" />
<glyph unicode="&#xe651;" glyph-name="users-outline_square-33" d="M992 960h-960c-19.2 0-32-12.8-32-32v-960c0-19.2 12.8-32 32-32h960c19.2 0 32 12.8 32 32v960c0 19.2-12.8 32-32 32zM640 448c0-70.4-57.6-128-128-128s-128 57.6-128 128v96c0 70.4 57.6 128 128 128s128-57.6 128-128v-96zM425.6 275.2c25.6-12.8 54.4-19.2 86.4-19.2s60.8 6.4 86.4 19.2l150.4-76.8c32-16 51.2-48 51.2-86.4v-112h-576v115.2c0 35.2 19.2 70.4 51.2 86.4l150.4 73.6zM960 0h-96v115.2c0 60.8-32 115.2-86.4 144l-121.6 64c32 35.2 51.2 80 51.2 128v96c0 105.6-86.4 192-192 192s-192-86.4-192-192v-96c0-51.2 19.2-96 51.2-128l-121.6-64c-60.8-32-92.8-86.4-92.8-144v-115.2h-96v896h896v-896z" />
<glyph unicode="&#xe652;" glyph-name="users-outline_woman-21" d="M896 576c0 211.2-172.8 384-384 384s-384-172.8-384-384c0-201.6 156.8-364.8 352-380.8v-67.2h-96c-19.2 0-32-12.8-32-32s12.8-32 32-32h96v-96c0-19.2 12.8-32 32-32s32 12.8 32 32v96h96c19.2 0 32 12.8 32 32s-12.8 32-32 32h-96v67.2c195.2 16 352 179.2 352 380.8zM192 576c0 176 144 320 320 320s320-144 320-320-144-320-320-320-320 144-320 320z" />
<glyph unicode="&#xe653;" glyph-name="users-outline_woman-24" d="M937.6 204.8c32 38.4 51.2 86.4 54.4 134.4 0 16-9.6 32-25.6 35.2-92.8 19.2-166.4 108.8-166.4 201.6v96c0 160-128 288-288 288s-288-128-288-288v-128c0-83.2 35.2-156.8 92.8-211.2l-201.6-108.8c-51.2-28.8-83.2-80-83.2-140.8v-115.2c0-19.2 12.8-32 32-32h896c19.2 0 32 12.8 32 32v115.2c0 48-19.2 89.6-54.4 121.6zM924.8 316.8c-6.4-28.8-22.4-57.6-41.6-80l-176 96c28.8 28.8 54.4 64 70.4 102.4 35.2-54.4 86.4-96 147.2-118.4zM512 896c124.8 0 224-99.2 224-224v-28.8c-44.8 9.6-80 35.2-99.2 73.6-6.4 12.8-16 19.2-28.8 19.2s-22.4-6.4-28.8-19.2c-32-67.2-105.6-108.8-195.2-108.8-38.4 0-60.8 19.2-96 44.8v0 19.2c0 124.8 99.2 224 224 224zM288 544v28.8c25.6-16 54.4-28.8 96-28.8 92.8 0 176 38.4 224 99.2 32-35.2 76.8-57.6 128-67.2v-32c0-124.8-99.2-224-224-224-44.8 0-83.2 12.8-118.4 35.2 0 0 0 0 0 0-64 38.4-105.6 108.8-105.6 188.8zM928 0h-832v83.2c0 35.2 19.2 67.2 51.2 83.2l227.2 124.8c41.6-22.4 89.6-35.2 137.6-35.2 51.2 0 99.2 12.8 140.8 35.2l227.2-124.8c32-16 51.2-48 51.2-83.2v-83.2z" />
<glyph unicode="&#xe654;" glyph-name="users-outline_woman-25" d="M937.6 204.8c32 38.4 51.2 86.4 54.4 134.4 0 16-9.6 32-25.6 35.2-92.8 19.2-166.4 108.8-166.4 201.6v96c0 160-128 288-288 288s-288-128-288-288v-96c0-92.8-73.6-182.4-166.4-204.8-16-3.2-25.6-16-25.6-32 3.2-51.2 22.4-96 54.4-134.4-35.2-32-54.4-73.6-54.4-121.6v-115.2c0-19.2 12.8-32 32-32h896c19.2 0 32 12.8 32 32v115.2c0 48-19.2 89.6-54.4 121.6zM924.8 316.8c-6.4-28.8-22.4-57.6-41.6-80l-176 96c28.8 28.8 54.4 64 70.4 102.4 35.2-54.4 86.4-96 147.2-118.4zM393.6 355.2c0 0 0 0 0 0-64 38.4-105.6 108.8-105.6 188.8v28.8c25.6-16 54.4-28.8 96-28.8 92.8 0 176 38.4 224 99.2 32-35.2 76.8-57.6 128-67.2v-32c0-124.8-99.2-224-224-224-44.8 0-83.2 12.8-118.4 35.2zM512 896c124.8 0 224-99.2 224-224v-28.8c-44.8 9.6-80 35.2-99.2 73.6-6.4 12.8-16 19.2-28.8 19.2s-22.4-6.4-28.8-19.2c-32-67.2-105.6-108.8-195.2-108.8-38.4 0-60.8 19.2-96 44.8v0 19.2c0 124.8 99.2 224 224 224zM246.4 435.2c16-38.4 41.6-73.6 70.4-102.4l-176-96c-19.2 22.4-35.2 51.2-41.6 80 60.8 22.4 112 64 147.2 118.4zM928 0h-832v83.2c0 35.2 19.2 67.2 51.2 83.2l227.2 124.8c41.6-22.4 89.6-35.2 137.6-35.2 51.2 0 99.2 12.8 140.8 35.2l227.2-124.8c32-16 51.2-48 51.2-83.2v-83.2z" />
<glyph unicode="&#xe655;" glyph-name="users-outline_woman-34" d="M937.6 204.8c32 38.4 51.2 86.4 54.4 134.4 0 16-9.6 32-25.6 35.2-92.8 19.2-166.4 108.8-166.4 201.6v96c0 160-128 288-288 288s-288-128-288-288v-128c0-83.2 35.2-156.8 92.8-211.2l-201.6-108.8c-51.2-28.8-83.2-80-83.2-140.8v-115.2c0-19.2 12.8-32 32-32h896c19.2 0 32 12.8 32 32v115.2c0 48-19.2 89.6-54.4 121.6zM924.8 316.8c-6.4-28.8-22.4-57.6-41.6-80l-176 96c28.8 28.8 54.4 64 70.4 102.4 35.2-54.4 86.4-96 147.2-118.4zM512 896c124.8 0 224-99.2 224-224h-240l-54.4 83.2c-12.8 19.2-41.6 19.2-54.4 0l-51.2-83.2h-48c0 124.8 99.2 224 224 224zM288 544v64h64c9.6 0 19.2 6.4 25.6 12.8l38.4 57.6 38.4-57.6c6.4-9.6 16-12.8 25.6-12.8h256v-64c0-124.8-99.2-224-224-224-44.8 0-83.2 12.8-118.4 35.2 0 0 0 0 0 0-64 38.4-105.6 108.8-105.6 188.8zM928 0h-832v83.2c0 35.2 19.2 67.2 51.2 83.2l227.2 124.8c41.6-22.4 89.6-35.2 137.6-35.2 51.2 0 99.2 12.8 140.8 35.2l227.2-124.8c32-16 51.2-48 51.2-83.2v-83.2z" />
<glyph unicode="&#xe656;" glyph-name="users-outline_woman-35" d="M937.6 204.8c32 38.4 51.2 86.4 54.4 134.4 0 16-9.6 32-25.6 35.2-92.8 19.2-166.4 108.8-166.4 201.6v96c0 160-128 288-288 288s-288-128-288-288v-96c0-92.8-73.6-182.4-166.4-204.8-16-3.2-25.6-16-25.6-32 3.2-51.2 22.4-96 54.4-134.4-35.2-32-54.4-73.6-54.4-121.6v-115.2c0-19.2 12.8-32 32-32h896c19.2 0 32 12.8 32 32v115.2c0 48-19.2 89.6-54.4 121.6zM924.8 316.8c-6.4-28.8-22.4-57.6-41.6-80l-176 96c28.8 28.8 54.4 64 70.4 102.4 35.2-54.4 86.4-96 147.2-118.4zM393.6 355.2c0 0 0 0 0 0-64 38.4-105.6 108.8-105.6 188.8v64h64c9.6 0 19.2 6.4 25.6 12.8l38.4 57.6 38.4-57.6c6.4-9.6 16-12.8 25.6-12.8h256v-64c0-124.8-99.2-224-224-224-44.8 0-83.2 12.8-118.4 35.2zM512 896c124.8 0 224-99.2 224-224h-240l-54.4 83.2c-12.8 19.2-41.6 19.2-54.4 0l-51.2-83.2h-48c0 124.8 99.2 224 224 224zM246.4 435.2c16-38.4 41.6-73.6 70.4-102.4l-176-96c-19.2 22.4-35.2 51.2-41.6 80 60.8 22.4 112 64 147.2 118.4zM928 0h-832v83.2c0 35.2 19.2 67.2 51.2 83.2l227.2 124.8c41.6-22.4 89.6-35.2 137.6-35.2 51.2 0 99.2 12.8 140.8 35.2l227.2-124.8c32-16 51.2-48 51.2-83.2v-83.2z" />
<glyph unicode="&#xe657;" glyph-name="users-outline_woman-man" d="M1004.8 956.8c-3.2 3.2-9.6 3.2-12.8 3.2h-160c-19.2 0-32-12.8-32-32s12.8-32 32-32h83.2l-128-128c-48 38.4-112 64-179.2 64-57.6 0-115.2-19.2-160-48-44.8 28.8-102.4 48-160 48-160 0-288-128-288-288 0-147.2 112-268.8 256-284.8v-131.2h-64c-19.2 0-32-12.8-32-32s12.8-32 32-32h64v-64c0-19.2 12.8-32 32-32s32 12.8 32 32v64h64c19.2 0 32 12.8 32 32s-12.8 32-32 32h-64v131.2c48 6.4 89.6 22.4 128 48 44.8-32 102.4-48 160-48 160 0 288 128 288 288 0 67.2-22.4 131.2-64 179.2l128 128v-86.4c0-19.2 12.8-32 32-32s32 12.8 32 32v160c0 3.2 0 9.6-3.2 12.8-3.2 6.4-9.6 12.8-16 16zM448 387.2c-38.4 41.6-64 96-64 156.8s25.6 115.2 64 156.8c38.4-41.6 64-96 64-156.8s-25.6-115.2-64-156.8zM64 544c0 124.8 99.2 224 224 224 38.4 0 76.8-9.6 108.8-28.8-48-51.2-76.8-118.4-76.8-195.2s28.8-144 76.8-195.2c-32-19.2-70.4-28.8-108.8-28.8-124.8 0-224 99.2-224 224zM608 320c-38.4 0-76.8 9.6-108.8 28.8 48 51.2 76.8 118.4 76.8 195.2s-28.8 144-76.8 195.2c32 19.2 70.4 28.8 108.8 28.8 124.8 0 224-99.2 224-224s-99.2-224-224-224z" />
<glyph unicode="&#xe658;" glyph-name="ui-outline-1_analytics-88" d="M992 960h-960c-19.2 0-32-12.8-32-32v-960c0-19.2 12.8-32 32-32h960c19.2 0 32 12.8 32 32v960c0 19.2-12.8 32-32 32zM960 896v-416h-192c-12.8 0-22.4-6.4-28.8-19.2l-99.2-198.4-227.2 454.4c-9.6 22.4-44.8 22.4-57.6 0l-118.4-236.8h-172.8v416h896zM64 0v416h192c12.8 0 22.4 6.4 28.8 19.2l99.2 198.4 227.2-454.4c6.4-9.6 16-19.2 28.8-19.2s22.4 6.4 28.8 19.2l118.4 236.8h172.8v-416h-896z" />
<glyph unicode="&#xe659;" glyph-name="ui-outline-1_analytics-89" d="M512 960c-281.6 0-512-230.4-512-512s230.4-512 512-512 512 230.4 512 512-230.4 512-512 512zM512 896c236.8 0 428.8-182.4 444.8-416h-185.6c-12.8 0-22.4-6.4-28.8-19.2l-102.4-204.8-230.4 467.2c-9.6 22.4-44.8 22.4-57.6 0l-121.6-243.2h-163.2c16 233.6 208 416 444.8 416zM512 0c-236.8 0-428.8 182.4-444.8 416h185.6c12.8 0 22.4 6.4 28.8 19.2l102.4 204.8 233.6-467.2c6.4-9.6 16-19.2 28.8-19.2s22.4 6.4 28.8 19.2l121.6 243.2h163.2c-19.2-233.6-211.2-416-448-416z" />
<glyph unicode="&#xe65a;" glyph-name="ui-outline-1_attach-86" d="M416 736c-19.2 0-32-12.8-32-32v-416c0-70.4 57.6-128 128-128s128 57.6 128 128v432c0 115.2-92.8 208-208 208s-208-92.8-208-208v-464c0-160 128-288 288-288s288 128 288 288v448c0 19.2-12.8 32-32 32s-32-12.8-32-32v-448c0-124.8-99.2-224-224-224s-224 99.2-224 224v464c0 80 64 144 144 144s144-64 144-144v-432c0-35.2-28.8-64-64-64s-64 28.8-64 64v416c0 19.2-12.8 32-32 32z" />
<glyph unicode="&#xe65b;" glyph-name="ui-outline-1_attach-87" d="M662.4 659.2c12.8 12.8 12.8 32 0 44.8s-32 12.8-44.8 0l-294.4-294.4c-25.6-25.6-38.4-57.6-38.4-92.8s12.8-67.2 38.4-89.6c48-48 131.2-48 182.4 0l304 304c80 80 80 214.4 0 294.4-38.4 38.4-92.8 60.8-147.2 60.8s-108.8-22.4-147.2-60.8l-326.4-326.4c-54.4-54.4-83.2-128-83.2-204.8s28.8-150.4 83.2-204.8c57.6-57.6 131.2-83.2 204.8-83.2s147.2 28.8 204.8 83.2l316.8 316.8c12.8 12.8 12.8 32 0 44.8s-32 12.8-44.8 0l-316.8-316.8c-86.4-86.4-230.4-86.4-316.8 0-41.6 41.6-67.2 99.2-67.2 160s22.4 115.2 67.2 156.8l323.2 329.6c25.6 28.8 64 41.6 102.4 41.6s73.6-16 102.4-41.6c57.6-57.6 57.6-147.2 0-204.8l-304-304c-25.6-25.6-67.2-25.6-89.6 0-12.8 12.8-19.2 28.8-19.2 44.8s6.4 32 19.2 44.8l291.2 297.6z" />
<glyph unicode="&#xe65c;" glyph-name="ui-outline-1_bell-53" d="M512 928c-176 0-320-144-320-320v-192c0-150.4-118.4-297.6-121.6-300.8-6.4-9.6-9.6-22.4-3.2-35.2 6.4-9.6 16-16 28.8-16h291.2c12.8-54.4 64-96 124.8-96s108.8 41.6 124.8 96h291.2c12.8 0 22.4 6.4 28.8 19.2 6.4 9.6 3.2 25.6-3.2 35.2 0 0-121.6 150.4-121.6 300.8v192c0 172.8-144 316.8-320 316.8zM512 32c-22.4 0-44.8 12.8-54.4 32h108.8c-9.6-19.2-32-32-54.4-32zM867.2 128h-710.4c41.6 60.8 99.2 172.8 99.2 288v192c0 137.6 118.4 256 256 256s256-118.4 256-256v-192c0-115.2 57.6-227.2 99.2-288z" />
<glyph unicode="&#xe65d;" glyph-name="ui-outline-1_bell-54" d="M864 371.2v204.8c0 195.2-156.8 352-352 352s-352-156.8-352-352v-204.8c-96-51.2-160-144-160-243.2 0 0 0 0 0 0s0 0 0 0c0-118.4 304-160 512-160s512 41.6 512 160c0 0 0 0 0 0s0 0 0 0c0 99.2-64 192-160 243.2zM204.8 323.2c12.8 3.2 19.2 16 19.2 28.8v224c0 160 128 288 288 288s288-128 288-288v-224c0-12.8 6.4-25.6 19.2-28.8 54.4-25.6 92.8-60.8 112-99.2-73.6 32-179.2 51.2-284.8 57.6-3.2 0-6.4 3.2-6.4 3.2-3.2 0-3.2 0-3.2 0-44.8 3.2-86.4 3.2-124.8 3.2-134.4 0-313.6-19.2-419.2-64 19.2 38.4 57.6 73.6 112 99.2zM601.6 220.8c-12.8-35.2-48-60.8-89.6-60.8s-76.8 25.6-89.6 60.8c28.8 3.2 57.6 3.2 89.6 3.2s60.8 0 89.6-3.2zM512 32c-288 0-444.8 67.2-448 96 0 22.4 102.4 70.4 291.2 89.6 16-70.4 80-121.6 153.6-121.6s137.6 51.2 153.6 121.6c188.8-19.2 291.2-67.2 291.2-89.6 3.2-28.8-153.6-96-441.6-96z" />
<glyph unicode="&#xe65e;" glyph-name="ui-outline-1_bell-55" d="M512 960c-188.8 0-352-163.2-352-352v-128c0-70.4-32-105.6-64-140.8-25.6-28.8-54.4-60.8-54.4-108.8 0-92.8 140.8-137.6 307.2-153.6 12.8-76.8 80-137.6 160-137.6s147.2 60.8 160 137.6c166.4 16 307.2 64 307.2 153.6 0 48-28.8 76.8-54.4 108.8-32 35.2-64 70.4-64 140.8v131.2c6.4 185.6-156.8 348.8-345.6 348.8zM512 0c-44.8 0-83.2 28.8-92.8 70.4 32-3.2 64-3.2 92.8-3.2 32 0 64 0 92.8 3.2-12.8-41.6-48-70.4-92.8-70.4zM880 294.4c25.6-28.8 38.4-44.8 38.4-67.2 0-28.8-83.2-76.8-275.2-92.8 0 0 0 0 0 0s0 0 0 0c-38.4-3.2-80-6.4-128-6.4s-89.6 3.2-124.8 6.4c0 0-3.2 0-3.2 0s0 0-3.2 0c-192 16-272 64-272 92.8 0 22.4 12.8 38.4 38.4 67.2 28.8 38.4 73.6 89.6 73.6 185.6v128c0 153.6 134.4 288 288 288s288-134.4 288-284.8v-131.2c0-96 44.8-147.2 80-185.6z" />
<glyph unicode="&#xe65f;" glyph-name="ui-outline-1_bold-add" d="M960 576h-320v320c0 19.2-12.8 32-32 32h-192c-19.2 0-32-12.8-32-32v-320h-320c-19.2 0-32-12.8-32-32v-192c0-19.2 12.8-32 32-32h320v-320c0-19.2 12.8-32 32-32h192c19.2 0 32 12.8 32 32v320h320c19.2 0 32 12.8 32 32v192c0 19.2-12.8 32-32 32zM928 384h-320c-19.2 0-32-12.8-32-32v-320h-128v320c0 19.2-12.8 32-32 32h-320v128h320c19.2 0 32 12.8 32 32v320h128v-320c0-19.2 12.8-32 32-32h320v-128z" />
<glyph unicode="&#xe660;" glyph-name="ui-outline-1_bold-delete" d="M960 576h-896c-19.2 0-32-12.8-32-32v-192c0-19.2 12.8-32 32-32h896c19.2 0 32 12.8 32 32v192c0 19.2-12.8 32-32 32zM928 384h-832v128h832v-128z" />
<glyph unicode="&#xe661;" glyph-name="ui-outline-1_bold-remove" d="M918.4 726.4l-128 128c-12.8 12.8-32 12.8-44.8 0l-233.6-233.6-233.6 233.6c-12.8 12.8-32 12.8-44.8 0l-128-128c-12.8-12.8-12.8-32 0-44.8l233.6-233.6-233.6-233.6c-12.8-12.8-12.8-32 0-44.8l128-128c12.8-12.8 32-12.8 44.8 0l233.6 233.6 233.6-233.6c6.4-6.4 16-9.6 22.4-9.6s16 3.2 22.4 9.6l128 128c12.8 12.8 12.8 32 0 44.8l-233.6 233.6 233.6 233.6c12.8 12.8 12.8 32 0 44.8zM617.6 470.4c-12.8-12.8-12.8-32 0-44.8l233.6-233.6-83.2-83.2-233.6 233.6c-6.4 6.4-12.8 9.6-22.4 9.6s-16-3.2-22.4-9.6l-233.6-233.6-83.2 83.2 233.6 233.6c12.8 12.8 12.8 32 0 44.8l-233.6 233.6 83.2 83.2 233.6-233.6c12.8-12.8 32-12.8 44.8 0l233.6 233.6 83.2-83.2-233.6-233.6z" />
<glyph unicode="&#xe662;" glyph-name="ui-outline-1_bookmark-add" d="M80 3.2c9.6-6.4 22.4-6.4 32 0l304 182.4 304-182.4c3.2-3.2 9.6-3.2 16-3.2s9.6 0 16 3.2c9.6 6.4 16 16 16 28.8v163.2c108.8 16 192 108.8 192 220.8s-83.2 204.8-192 220.8v291.2c0 19.2-12.8 32-32 32h-640c-19.2 0-32-12.8-32-32v-896c0-12.8 6.4-22.4 16-28.8zM896 416c0-89.6-70.4-160-160-160s-160 70.4-160 160 70.4 160 160 160 160-70.4 160-160zM128 896h576v-259.2c-108.8-16-192-108.8-192-220.8s83.2-204.8 192-220.8v-105.6l-272 163.2c-9.6 6.4-22.4 6.4-32 0l-272-163.2v806.4zM704 480v-32h-32c-19.2 0-32-12.8-32-32s12.8-32 32-32h32v-32c0-19.2 12.8-32 32-32s32 12.8 32 32v32h32c19.2 0 32 12.8 32 32s-12.8 32-32 32h-32v32c0 19.2-12.8 32-32 32s-32-12.8-32-32z" />
<glyph unicode="&#xe663;" glyph-name="ui-outline-1_bookmark-remove" d="M736 960h-640c-19.2 0-32-12.8-32-32v-896c0-12.8 6.4-22.4 16-28.8s22.4-6.4 32 0l304 182.4 304-182.4c3.2-3.2 9.6-3.2 16-3.2s9.6 0 16 3.2c9.6 6.4 16 16 16 28.8v163.2c108.8 16 192 108.8 192 220.8s-83.2 204.8-192 220.8v291.2c0 19.2-12.8 32-32 32zM432 252.8c-9.6 6.4-22.4 6.4-32 0l-272-163.2v806.4h576v-259.2c-108.8-16-192-108.8-192-220.8s83.2-204.8 192-220.8v-105.6l-272 163.2zM896 416c0-89.6-70.4-160-160-160s-160 70.4-160 160 70.4 160 160 160 160-70.4 160-160zM640 416c0-19.2 12.8-32 32-32h128c19.2 0 32 12.8 32 32s-12.8 32-32 32h-128c-19.2 0-32-12.8-32-32z" />
<glyph unicode="&#xe664;" glyph-name="ui-outline-1_calendar-57" d="M992 864h-192v64c0 19.2-12.8 32-32 32s-32-12.8-32-32v-64h-192v64c0 19.2-12.8 32-32 32s-32-12.8-32-32v-64h-192v64c0 19.2-12.8 32-32 32s-32-12.8-32-32v-64h-192c-19.2 0-32-12.8-32-32v-864c0-19.2 12.8-32 32-32h960c19.2 0 32 12.8 32 32v864c0 19.2-12.8 32-32 32zM224 800v-64c0-19.2 12.8-32 32-32s32 12.8 32 32v64h192v-64c0-19.2 12.8-32 32-32s32 12.8 32 32v64h192v-64c0-19.2 12.8-32 32-32s32 12.8 32 32v64h160v-160h-896v160h160zM64 0v576h896v-576h-896z" />
<glyph unicode="&#xe665;" glyph-name="ui-outline-1_calendar-60" d="M992 864h-160v64c0 19.2-12.8 32-32 32h-96c-19.2 0-32-12.8-32-32v-64h-320v64c0 19.2-12.8 32-32 32h-96c-19.2 0-32-12.8-32-32v-64h-160c-19.2 0-32-12.8-32-32v-864c0-19.2 12.8-32 32-32h960c19.2 0 32 12.8 32 32v864c0 19.2-12.8 32-32 32zM736 896h32v-128h-32v128zM256 896h32v-128h-32v128zM192 800v-64c0-19.2 12.8-32 32-32h96c19.2 0 32 12.8 32 32v64h320v-64c0-19.2 12.8-32 32-32h96c19.2 0 32 12.8 32 32v64h128v-160h-896v160h128zM64 0v576h896v-576h-896z" />
<glyph unicode="&#xe666;" glyph-name="ui-outline-1_calendar-check-59" d="M992 864h-192v64c0 19.2-12.8 32-32 32s-32-12.8-32-32v-64h-192v64c0 19.2-12.8 32-32 32s-32-12.8-32-32v-64h-192v64c0 19.2-12.8 32-32 32s-32-12.8-32-32v-64h-192c-19.2 0-32-12.8-32-32v-864c0-19.2 12.8-32 32-32h960c19.2 0 32 12.8 32 32v864c0 19.2-12.8 32-32 32zM224 800v-64c0-19.2 12.8-32 32-32s32 12.8 32 32v64h192v-64c0-19.2 12.8-32 32-32s32 12.8 32 32v64h192v-64c0-19.2 12.8-32 32-32s32 12.8 32 32v64h160v-160h-896v160h160zM64 0v576h896v-576h-896zM681.6 438.4l-233.6-233.6-105.6 105.6c-12.8 12.8-32 12.8-44.8 0s-12.8-32 0-44.8l128-128c6.4-6.4 16-9.6 22.4-9.6s16 3.2 22.4 9.6l256 256c12.8 12.8 12.8 32 0 44.8s-32 12.8-44.8 0z" />
<glyph unicode="&#xe667;" glyph-name="ui-outline-1_calendar-check-62" d="M681.6 438.4l-233.6-233.6-105.6 105.6c-12.8 12.8-32 12.8-44.8 0s-12.8-32 0-44.8l128-128c6.4-6.4 16-9.6 22.4-9.6s16 3.2 22.4 9.6l256 256c12.8 12.8 12.8 32 0 44.8s-32 12.8-44.8 0zM992 864h-160v64c0 19.2-12.8 32-32 32h-96c-19.2 0-32-12.8-32-32v-64h-320v64c0 19.2-12.8 32-32 32h-96c-19.2 0-32-12.8-32-32v-64h-160c-19.2 0-32-12.8-32-32v-864c0-19.2 12.8-32 32-32h960c19.2 0 32 12.8 32 32v864c0 19.2-12.8 32-32 32zM736 896h32v-128h-32v128zM256 896h32v-128h-32v128zM192 800v-64c0-19.2 12.8-32 32-32h96c19.2 0 32 12.8 32 32v64h320v-64c0-19.2 12.8-32 32-32h96c19.2 0 32 12.8 32 32v64h128v-160h-896v160h128zM64 0v576h896v-576h-896z" />
<glyph unicode="&#xe668;" glyph-name="ui-outline-1_calendar-grid-58" d="M992 864h-192v64c0 19.2-12.8 32-32 32s-32-12.8-32-32v-64h-192v64c0 19.2-12.8 32-32 32s-32-12.8-32-32v-64h-192v64c0 19.2-12.8 32-32 32s-32-12.8-32-32v-64h-192c-19.2 0-32-12.8-32-32v-864c0-19.2 12.8-32 32-32h960c19.2 0 32 12.8 32 32v864c0 19.2-12.8 32-32 32zM224 800v-64c0-19.2 12.8-32 32-32s32 12.8 32 32v64h192v-64c0-19.2 12.8-32 32-32s32 12.8 32 32v64h192v-64c0-19.2 12.8-32 32-32s32 12.8 32 32v64h160v-160h-896v160h160zM64 0v576h896v-576h-896zM800 480h-576c-19.2 0-32-12.8-32-32v-320c0-19.2 12.8-32 32-32h384c19.2 0 32 12.8 32 32v128h160c19.2 0 32 12.8 32 32v160c0 19.2-12.8 32-32 32zM576 416v-96h-128v96h128zM384 416v-96h-128v96h128zM256 256h128v-96h-128v96zM448 160v96h128v-96h-128zM768 320h-128v96h128v-96z" />
<glyph unicode="&#xe669;" glyph-name="ui-outline-1_calendar-grid-61" d="M992 864h-160v64c0 19.2-12.8 32-32 32h-96c-19.2 0-32-12.8-32-32v-64h-320v64c0 19.2-12.8 32-32 32h-96c-19.2 0-32-12.8-32-32v-64h-160c-19.2 0-32-12.8-32-32v-864c0-19.2 12.8-32 32-32h960c19.2 0 32 12.8 32 32v864c0 19.2-12.8 32-32 32zM736 896h32v-128h-32v128zM256 896h32v-128h-32v128zM192 800v-64c0-19.2 12.8-32 32-32h96c19.2 0 32 12.8 32 32v64h320v-64c0-19.2 12.8-32 32-32h96c19.2 0 32 12.8 32 32v64h128v-160h-896v160h128zM64 0v576h896v-576h-896zM800 480h-576c-19.2 0-32-12.8-32-32v-320c0-19.2 12.8-32 32-32h384c19.2 0 32 12.8 32 32v128h160c19.2 0 32 12.8 32 32v160c0 19.2-12.8 32-32 32zM576 416v-96h-128v96h128zM384 416v-96h-128v96h128zM256 256h128v-96h-128v96zM448 160v96h128v-96h-128zM768 320h-128v96h128v-96z" />
<glyph unicode="&#xe66a;" glyph-name="ui-outline-1_check-bold" d="M384 96c0 0 0 0 0 0 9.6 0 16 3.2 22.4 9.6l576 608c6.4 6.4 9.6 16 9.6 25.6s-6.4 19.2-12.8 22.4l-96 64c-12.8 6.4-25.6 6.4-38.4-3.2l-460.8-364.8-204.8 147.2c-12.8 9.6-28.8 6.4-41.6-3.2l-96-96c-12.8-12.8-12.8-32 0-44.8l320-352c3.2-9.6 12.8-12.8 22.4-12.8zM163.2 534.4l201.6-144c12.8-9.6 28.8-6.4 38.4 0l464 371.2 44.8-28.8-528-556.8-275.2 304 54.4 54.4z" />
<glyph unicode="&#xe66b;" glyph-name="ui-outline-1_check-circle-07" d="M480-32c246.4 0 448 201.6 448 448 0 60.8-12.8 118.4-35.2 172.8-6.4 16-25.6 22.4-41.6 16s-25.6-25.6-16-41.6c19.2-48 28.8-96 28.8-147.2 0-211.2-172.8-384-384-384s-384 172.8-384 384 172.8 384 384 384c73.6 0 144-19.2 204.8-57.6 16-9.6 35.2-6.4 44.8 9.6s6.4 35.2-9.6 44.8c-73.6 44.8-153.6 67.2-240 67.2-246.4 0-448-201.6-448-448s201.6-448 448-448zM342.4 566.4c-12.8 12.8-32 12.8-44.8 0s-12.8-32 0-44.8l160-160c6.4-6.4 16-9.6 22.4-9.6s16 3.2 22.4 9.6l480 480c12.8 12.8 12.8 32 0 44.8s-32 12.8-44.8 0l-457.6-457.6-137.6 137.6z" />
<glyph unicode="&#xe66c;" glyph-name="ui-outline-1_check-circle-08" d="M713.6 630.4l-297.6-297.6-105.6 105.6c-12.8 12.8-32 12.8-44.8 0s-12.8-32 0-44.8l128-128c6.4-6.4 16-9.6 22.4-9.6s16 3.2 22.4 9.6l320 320c12.8 12.8 12.8 32 0 44.8s-32 12.8-44.8 0zM512 960c-281.6 0-512-230.4-512-512s230.4-512 512-512 512 230.4 512 512-230.4 512-512 512zM512 0c-246.4 0-448 201.6-448 448s201.6 448 448 448 448-201.6 448-448-201.6-448-448-448z" />
<glyph unicode="&#xe66d;" glyph-name="ui-outline-1_check-curve" d="M329.6 73.6c6.4-6.4 16-9.6 22.4-9.6 0 0 3.2 0 3.2 0 9.6 0 19.2 6.4 25.6 16 249.6 390.4 592 595.2 595.2 595.2 12.8 6.4 19.2 22.4 12.8 38.4l-32 96c-3.2 9.6-9.6 16-19.2 19.2s-19.2 3.2-25.6 0c-281.6-144-502.4-342.4-566.4-403.2l-169.6 115.2c-12.8 9.6-28.8 6.4-41.6-3.2l-96-96c-12.8-12.8-12.8-32 0-44.8l291.2-323.2zM163.2 470.4l169.6-112c12.8-9.6 28.8-6.4 41.6 3.2 3.2 3.2 227.2 230.4 534.4 393.6l12.8-35.2c-80-51.2-352-240-572.8-569.6l-240 265.6 54.4 54.4z" />
<glyph unicode="&#xe66e;" glyph-name="ui-outline-1_check-simple" d="M361.6 73.6c6.4-6.4 16-9.6 22.4-9.6s16 3.2 22.4 9.6l576 576c12.8 12.8 12.8 32 0 44.8l-128 128c-12.8 12.8-32 12.8-44.8 0l-425.6-425.6-169.6 169.6c-12.8 12.8-32 12.8-44.8 0l-128-128c-12.8-12.8-12.8-32 0-44.8l320-320zM192 499.2l169.6-169.6c12.8-12.8 32-12.8 44.8 0l425.6 425.6 83.2-83.2-531.2-531.2-275.2 275.2 83.2 83.2z" />
<glyph unicode="&#xe66f;" glyph-name="ui-outline-1_check-small" d="M393.6 265.6c6.4-6.4 16-9.6 22.4-9.6s16 3.2 22.4 9.6l320 320c12.8 12.8 12.8 32 0 44.8s-32 12.8-44.8 0l-297.6-297.6-105.6 105.6c-12.8 12.8-32 12.8-44.8 0s-12.8-32 0-44.8l128-128z" />
<glyph unicode="&#xe670;" glyph-name="ui-outline-1_check-square-09" d="M992 960h-960c-19.2 0-32-12.8-32-32v-960c0-19.2 12.8-32 32-32h960c19.2 0 32 12.8 32 32v960c0 19.2-12.8 32-32 32zM960 0h-896v896h896v-896zM393.6 265.6c6.4-6.4 16-9.6 22.4-9.6s16 3.2 22.4 9.6l320 320c12.8 12.8 12.8 32 0 44.8s-32 12.8-44.8 0l-297.6-297.6-105.6 105.6c-12.8 12.8-32 12.8-44.8 0s-12.8-32 0-44.8l128-128z" />
<glyph unicode="&#xe671;" glyph-name="ui-outline-1_check-square-11" d="M342.4 566.4c-12.8 12.8-32 12.8-44.8 0s-12.8-32 0-44.8l160-160c6.4-6.4 16-9.6 22.4-9.6s16 3.2 22.4 9.6l480 480c12.8 12.8 12.8 32 0 44.8s-32 12.8-44.8 0l-457.6-457.6-137.6 137.6zM64-32h832c19.2 0 32 12.8 32 32v512c0 19.2-12.8 32-32 32s-32-12.8-32-32v-480h-768v768h544c19.2 0 32 12.8 32 32s-12.8 32-32 32h-576c-19.2 0-32-12.8-32-32v-832c0-19.2 12.8-32 32-32z" />
<glyph unicode="&#xe672;" glyph-name="ui-outline-1_check" d="M361.6 137.6c6.4-6.4 16-9.6 22.4-9.6s16 3.2 22.4 9.6l576 576c12.8 12.8 12.8 32 0 44.8s-32 12.8-44.8 0l-553.6-553.6-297.6 297.6c-12.8 12.8-32 12.8-44.8 0s-12.8-32 0-44.8l320-320z" />
<glyph unicode="&#xe673;" glyph-name="ui-outline-1_circle-add" d="M736 480h-192v192c0 19.2-12.8 32-32 32s-32-12.8-32-32v-192h-192c-19.2 0-32-12.8-32-32s12.8-32 32-32h192v-192c0-19.2 12.8-32 32-32s32 12.8 32 32v192h192c19.2 0 32 12.8 32 32s-12.8 32-32 32zM512 960c-281.6 0-512-230.4-512-512s230.4-512 512-512 512 230.4 512 512-230.4 512-512 512zM512 0c-246.4 0-448 201.6-448 448s201.6 448 448 448 448-201.6 448-448-201.6-448-448-448z" />
<glyph unicode="&#xe674;" glyph-name="ui-outline-1_circle-bold-add" d="M512 960c-281.6 0-512-230.4-512-512s230.4-512 512-512 512 230.4 512 512-230.4 512-512 512zM512 0c-246.4 0-448 201.6-448 448s201.6 448 448 448 448-201.6 448-448-201.6-448-448-448zM800 544h-192v192c0 19.2-12.8 32-32 32h-128c-19.2 0-32-12.8-32-32v-192h-192c-19.2 0-32-12.8-32-32v-128c0-19.2 12.8-32 32-32h192v-192c0-19.2 12.8-32 32-32h128c19.2 0 32 12.8 32 32v192h192c19.2 0 32 12.8 32 32v128c0 19.2-12.8 32-32 32zM768 416h-192c-19.2 0-32-12.8-32-32v-192h-64v192c0 19.2-12.8 32-32 32h-192v64h192c19.2 0 32 12.8 32 32v192h64v-192c0-19.2 12.8-32 32-32h192v-64z" />
<glyph unicode="&#xe675;" glyph-name="ui-outline-1_circle-bold-remove" d="M512 960c-281.6 0-512-230.4-512-512s230.4-512 512-512 512 230.4 512 512-230.4 512-512 512zM512 0c-246.4 0-448 201.6-448 448s201.6 448 448 448 448-201.6 448-448-201.6-448-448-448zM784 630.4l-89.6 89.6c-12.8 12.8-32 12.8-44.8 0l-137.6-137.6-134.4 134.4c-12.8 12.8-32 12.8-44.8 0l-89.6-89.6c-12.8-12.8-12.8-32 0-44.8l134.4-134.4-134.4-134.4c-12.8-12.8-12.8-32 0-44.8l89.6-89.6c12.8-12.8 32-12.8 44.8 0l134.4 134.4 134.4-134.4c6.4-6.4 16-9.6 22.4-9.6s16 3.2 22.4 9.6l89.6 89.6c12.8 12.8 12.8 32 0 44.8l-134.4 134.4 134.4 134.4c16 12.8 16 35.2 3.2 48zM579.2 470.4c-12.8-12.8-12.8-32 0-44.8l134.4-134.4-41.6-48-134.4 134.4c-6.4 6.4-16 9.6-22.4 9.6s-16-3.2-22.4-9.6l-140.8-134.4-44.8 44.8 134.4 134.4c12.8 12.8 12.8 32 0 44.8l-134.4 140.8 44.8 44.8 134.4-134.4c12.8-12.8 32-12.8 44.8 0l140.8 134.4 44.8-44.8-137.6-137.6z" />
<glyph unicode="&#xe676;" glyph-name="ui-outline-1_circle-delete" d="M736 480h-448c-19.2 0-32-12.8-32-32s12.8-32 32-32h448c19.2 0 32 12.8 32 32s-12.8 32-32 32zM512 960c-281.6 0-512-230.4-512-512s230.4-512 512-512 512 230.4 512 512-230.4 512-512 512zM512 0c-246.4 0-448 201.6-448 448s201.6 448 448 448 448-201.6 448-448-201.6-448-448-448z" />
<glyph unicode="&#xe677;" glyph-name="ui-outline-1_circle-remove" d="M726.4 662.4c-12.8 12.8-32 12.8-44.8 0l-169.6-169.6-169.6 169.6c-12.8 12.8-32 12.8-44.8 0s-12.8-32 0-44.8l169.6-169.6-169.6-169.6c-12.8-12.8-12.8-32 0-44.8 6.4-6.4 12.8-9.6 22.4-9.6s16 3.2 22.4 9.6l169.6 169.6 169.6-169.6c6.4-6.4 16-9.6 22.4-9.6s16 3.2 22.4 9.6c12.8 12.8 12.8 32 0 44.8l-169.6 169.6 169.6 169.6c12.8 12.8 12.8 32 0 44.8zM512 960c-281.6 0-512-230.4-512-512s230.4-512 512-512 512 230.4 512 512-230.4 512-512 512zM512 0c-246.4 0-448 201.6-448 448s201.6 448 448 448 448-201.6 448-448-201.6-448-448-448z" />
<glyph unicode="&#xe678;" glyph-name="ui-outline-1_dashboard-29" d="M512 806.4c-48 0-96-9.6-140.8-28.8-16-6.4-22.4-25.6-16-41.6s25.6-22.4 41.6-16c35.2 16 76.8 22.4 115.2 22.4 163.2 0 294.4-131.2 294.4-294.4 0-19.2 12.8-32 32-32s32 12.8 32 32c0 198.4-160 358.4-358.4 358.4zM224 604.8c-16 6.4-35.2 0-41.6-16-19.2-44.8-28.8-92.8-28.8-140.8 0-19.2 12.8-32 32-32s32 12.8 32 32c0 41.6 6.4 80 22.4 115.2 9.6 16 0 35.2-16 41.6zM512 960c-281.6 0-512-230.4-512-512s230.4-512 512-512 512 230.4 512 512-230.4 512-512 512zM512 0c-246.4 0-448 201.6-448 448s201.6 448 448 448 448-201.6 448-448-201.6-448-448-448zM512 576c-22.4 0-44.8-6.4-64-19.2l-156.8 156.8c-12.8 12.8-32 12.8-44.8 0s-12.8-32 0-44.8l156.8-156.8c-12.8-19.2-19.2-41.6-19.2-64 0-70.4 57.6-128 128-128s128 57.6 128 128-57.6 128-128 128zM512 384c-35.2 0-64 28.8-64 64s28.8 64 64 64 64-28.8 64-64-28.8-64-64-64z" />
</font>
</defs>
</svg>
